<?xml version="1.0" standalone="no"?>
<!DOCTYPE svg PUBLIC "-//W3C//DTD SVG 1.1//EN" "http://www.w3.org/Graphics/SVG/1.1/DTD/svg11.dtd" >
<svg xmlns="http://www.w3.org/2000/svg">
<metadata>Generated by IcoMoon</metadata>
<defs>
<font id="icomoon" horiz-adv-x="1024">
<font-face units-per-em="1024" ascent="960" descent="-64" />
<missing-glyph horiz-adv-x="1024" />
<glyph unicode="&#x20;" horiz-adv-x="512" d="" />
<glyph unicode="&#xe900;" d="M1004 908v-80c-50.766 0-951.023 0-984 0v80z" />
<glyph unicode="&#xe901;" d="M644 68c0-44.18-35.82-80-80-80-22.078 0-42.078 8.961-56.563 23.438-14.477 14.484-23.438 34.484-23.438 56.563 0 6.461 0 664.141 0 680h480v-680c0-44.18-35.82-80-80-80-22.078 0-42.078 8.961-56.563 23.438-14.477 14.484-23.438 34.484-23.438 56.563 0-22.078-8.961-42.078-23.438-56.563-14.484-14.477-34.484-23.438-56.563-23.438-44.18 0-80 35.82-80 80z" />
<glyph unicode="&#xe902;" d="M100 708v-640h384c0 35.516 0 604.484 0 640z" />
<glyph unicode="&#xe903;" d="M824 668c0-11.047-8.953-20-20-20s-20 8.953-20 20 8.953 20 20 20 20-8.953 20-20z" />
<glyph unicode="&#xe904;" d="M664 668c0-11.047-8.953-20-20-20s-20 8.953-20 20 8.953 20 20 20 20-8.953 20-20z" />
<glyph unicode="&#xe905;" d="M1004 928h-984c-11.047 0-20-8.953-20-20v-80c0-11.047 8.953-20 20-20h524v-40h-60c-11.047 0-20-8.953-20-20v-20h-364c-11.047 0-20-8.953-20-20v-640c0-11.047 8.953-20 20-20h366c9.133-45.203 49.188-80 98-80 32.68 0 61.742 15.758 80 40.070 18.258-24.313 47.32-40.070 80-40.070 31.664 0 60.922 14.688 80 40.008 19.047-25.281 48.289-40.008 80-40.008 55.141 0 100 44.859 100 100v680c0 11.047-8.953 20-20 20h-60v40h100c11.047 0 20 8.953 20 20v80c0 11.047-8.953 20-20 20zM584 808h120v-40h-120zM464 688v-280h-344v280zM120 368h344v-280h-344zM944 68c0-33.086-26.914-60-60-60-33.141 0-60 26.859-60 60v520c0 11.047-8.953 20-20 20s-20-8.953-20-20v-520c0-33.133-26.859-60-60-60-33.086 0-60 26.914-60 60v520c0 11.047-8.953 20-20 20s-20-8.953-20-20v-520c0-33.086-26.914-60-60-60-33.141 0-60 26.859-60 60v660h440zM864 768h-120v40h120zM984 848h-944v40h944z" />
<glyph unicode="&#xe906;" d="M1004 448v-120c-27.633 0-956.359 0-984 0v120z" />
<glyph unicode="&#xe907;" d="M947.344 568c-30.977-71.055-101.82-120-183.344-120h-504c-110.461 0-200 89.539-200 200h904c0-28.438-5.938-55.5-16.641-80z" />
<glyph unicode="&#xe908;" d="M712 820v-40h-80v40c0 22.102-17.898 40-40 40-22.078 0-40-17.922-40-40v-172h-80v172c0 66.281 53.719 120 120 120 66.273 0 120-53.719 120-120z" />
<glyph unicode="&#xe909;" d="M60 328v-372h904v372c-25.508 0-878.508 0-904 0z" />
<glyph unicode="&#xe90a;" d="M360 768l-20-120h-80l-20 120z" />
<glyph unicode="&#xe90b;" d="M200 568c0-11.047-8.953-20-20-20s-20 8.953-20 20 8.953 20 20 20 20-8.953 20-20z" />
<glyph unicode="&#xe90c;" d="M1004 468h-113.406c57.805 40.852 93.406 107.172 93.406 180 0 11.047-8.953 20-20 20h-392v152c0 11.039 8.961 20 20 20 11.031 0 20-8.969 20-20v-40c0-11.047 8.953-20 20-20h80c11.047 0 20 8.953 20 20v40c0 77.063-62.328 140-140 140-77.195 0-140-62.805-140-140v-152h-88.391l16.117 96.711c2.031 12.164-7.359 23.289-19.727 23.289h-120c-12.336 0-21.766-11.086-19.727-23.289l16.117-96.711h-176.391c-11.047 0-20-8.953-20-20 0-74.328 37.055-140.148 93.656-180h-113.656c-11.047 0-20-8.953-20-20v-120c0-11.047 8.953-20 20-20h20v-352c0-11.047 8.953-20 20-20h904c11.047 0 20 8.953 20 20v352h20c11.047 0 20 8.953 20 20v120c0 11.047-8.953 20-20 20zM492 820c0 55.141 44.859 100 100 100 55.188 0 100-44.648 100-100v-20h-40v20c0 33.086-26.914 60-60 60-33.148 0-60-26.852-60-60v-152h-40zM336.391 748l-13.336-80h-46.117l-13.328 80zM81.102 628.023h861.805c-1.5-13.68-4.563-27.078-9.148-40.023h-673.758c-11.047 0-20-8.953-20-20s8.953-19.977 20-19.977h653.68c-32.539-48.633-87.414-80.023-149.68-80.023h-504c-92.492 0-168.914 70.148-178.898 160.023zM80 308h412v-332h-412zM944-24h-412v332h412zM984 348c-98.070 0-854.938 0-944 0v80h944z" />
<glyph unicode="&#xe90d;" d="M592 108c11.047 0 20 8.953 20 20v80c0 11.047-8.953 20-20 20s-20-8.953-20-20v-80c0-11.047 8.953-20 20-20z" />
<glyph unicode="&#xe90e;" d="M432 228c-11.047 0-20-8.953-20-20v-80c0-11.047 8.953-20 20-20s20 8.953 20 20v80c0 11.047-8.953 20-20 20z" />
<glyph unicode="&#xe90f;" d="M148 940h688v-544h-688z" />
<glyph unicode="&#xe910;" d="M472 36h240v-80h-240z" />
<glyph unicode="&#xe911;" d="M672 356c0 22.102 17.898 40 40 40s40-17.898 40-40v-96.281c0-76.359-13.539-152.102-40-223.719h-240c-63.758 106.102-127.961 165.523-172.281 209.844-15.617 15.617-15.617 40.938 0 56.555 15.625 15.625 40.961 15.625 56.578 0l75.703-75.695c0 34.266 0 300.602 0 341.297 0 22.102 17.898 40 40 40s40-17.898 40-40v-172c0 22.102 17.898 40 40 40s40-17.898 40-40c0 22.102 17.898 40 40 40s40-17.898 40-40z" />
<glyph unicode="&#xe912;" d="M1004 900v-464c0-22.102-17.898-40-40-40h-128v544h128c22.102 0 40-17.898 40-40z" />
<glyph unicode="&#xe913;" d="M148 940v-544h-88c-22.102 0-40 17.898-40 40v464c0 22.102 17.898 40 40 40z" />
<glyph unicode="&#xe914;" d="M632 808h120v-80h-120z" />
<glyph unicode="&#xe915;" d="M632 608h120v-80h-120z" />
<glyph unicode="&#xe916;" d="M232 608h120v-80h-120z" />
<glyph unicode="&#xe917;" d="M232 808h120v-80h-120z" />
<glyph unicode="&#xe918;" d="M432 808h120v-80h-120z" />
<glyph unicode="&#xe919;" d="M940 568c0-11.047-8.953-20-20-20s-20 8.953-20 20 8.953 20 20 20 20-8.953 20-20z" />
<glyph unicode="&#xe91a;" d="M964 960h-904c-33.086 0-60-26.914-60-60v-464c0-33.086 26.914-60 60-60h352v-101.016l-41.555 41.555c-23.398 23.398-61.469 23.398-84.867 0-23.391-23.391-23.391-61.453 0-84.844 51.148-51.148 107.422-104.469 166.422-201.305v-74.391c0-11.047 8.953-20 20-20h240c11.047 0 20 8.953 20 20v76.539c26.523 73.023 40 149.43 40 227.18v96.281c0 7.016-1.219 13.742-3.438 20h195.438c33.086 0 60 26.914 60 60v464c0 33.086-26.914 60-60 60zM40 436v464c0 11.031 8.969 20 20 20h68v-504h-68c-11.031 0-20 8.969-20 20zM168 416v504h648v-504h-104c-7.805 0-15.266-1.516-22.117-4.242-6.938 25.461-30.25 44.242-57.883 44.242-15.359 0-29.375-5.805-40-15.328-10.625 9.523-24.641 15.328-40 15.328-7.016 0-13.742-1.219-20-3.438v115.438c0 33.086-26.914 60-60 60s-60-26.914-60-60v-152zM692-24h-200v40h200zM732 356v-96.281c0-69.602-11.461-138.070-34.094-203.719h-214.672c-58.25 94.359-111.43 146.008-169.375 203.984-7.797 7.789-7.797 20.477 0 28.273 7.805 7.797 20.5 7.797 28.297 0l75.703-75.703c5.719-5.719 14.328-7.422 21.797-4.336 7.469 3.094 12.344 10.391 12.344 18.477v341.305c0 11.031 8.969 20 20 20s20-8.969 20-20v-252c0-11.047 8.953-20 20-20s20 8.953 20 20v80c0 11.031 8.969 20 20 20s20-8.969 20-20v-80c0-11.047 8.953-20 20-20s20 8.953 20 20v80c0 11.031 8.969 20 20 20s20-8.969 20-20v-80c0-11.047 8.953-20 20-20s20 8.953 20 20v40c0 11.031 8.969 20 20 20s20-8.969 20-20zM984 436c0-11.031-8.969-20-20-20h-108v504h108c11.031 0 20-8.969 20-20z" />
<glyph unicode="&#xe91b;" d="M920 788c-11.047 0-20-8.953-20-20v-120c0-11.047 8.953-20 20-20s20 8.953 20 20v120c0 11.047-8.953 20-20 20z" />
<glyph unicode="&#xe91c;" d="M352 828h-120c-11.047 0-20-8.953-20-20v-80c0-11.047 8.953-20 20-20h120c11.047 0 20 8.953 20 20v80c0 11.047-8.953 20-20 20zM332 748h-80v40h80z" />
<glyph unicode="&#xe91d;" d="M432 708h120c11.047 0 20 8.953 20 20v80c0 11.047-8.953 20-20 20h-120c-11.047 0-20-8.953-20-20v-80c0-11.047 8.953-20 20-20zM452 788h80v-40h-80z" />
<glyph unicode="&#xe91e;" d="M632 708h120c11.047 0 20 8.953 20 20v80c0 11.047-8.953 20-20 20h-120c-11.047 0-20-8.953-20-20v-80c0-11.047 8.953-20 20-20zM652 788h80v-40h-80z" />
<glyph unicode="&#xe91f;" d="M352 628h-120c-11.047 0-20-8.953-20-20v-80c0-11.047 8.953-20 20-20h120c11.047 0 20 8.953 20 20v80c0 11.047-8.953 20-20 20zM332 548h-80v40h80z" />
<glyph unicode="&#xe920;" d="M632 508h120c11.047 0 20 8.953 20 20v80c0 11.047-8.953 20-20 20h-120c-11.047 0-20-8.953-20-20v-80c0-11.047 8.953-20 20-20zM652 588h80v-40h-80z" />
<glyph unicode="&#xe921;" d="M898.142 568l-33.797 72.5-650.102-214.875c1.648-3.523-11.453 24.57 84.524-181.258 28.445 13.266 555.524 259.047 580.040 270.477 20.016 9.344 28.68 33.141 19.336 53.156z" />
<glyph unicode="&#xe922;" d="M1004.001 343.961v-319.993h-40c-22.102 0-40 17.898-40 40 0 71.703 0 159.781 0 239.992 0 22.102 17.898 40 40 40z" />
<glyph unicode="&#xe923;" d="M281.867 280.625l-72.524-33.82-67.617 145.024 72.516 33.797z" />
<glyph unicode="&#xe924;" d="M924.001 233.969v-100h-220c-18.938 0-36.258 10.695-44.719 27.633l-101.719 203.446 90.656 42.281 86.68-173.36z" />
<glyph unicode="&#xe925;" d="M779.806 821.766l84.539-181.266-485.579-226.414c-14.32-6.68-30.305-8.984-45.898-6.578-0.281 0.039-260.969 39.883-261.203 39.914l-51.656 108.766 653.493 304.274c40.039 18.68 87.641 1.344 106.305-38.695z" />
<glyph unicode="&#xe926;" d="M522.383 569.32c4.656-10.016 16.563-14.336 26.578-9.68 10 4.68 14.344 16.586 9.68 26.586-4.68 10.016-16.578 14.336-26.578 9.68-10.023-4.68-14.336-16.586-9.68-26.586z" />
<glyph unicode="&#xe927;" d="M515.141 632.141c10.023 4.68 14.344 16.586 9.68 26.586-4.656 10.016-16.555 14.336-26.578 9.68-10-4.664-14.336-16.563-9.68-26.586 4.68-10 16.578-14.336 26.578-9.68z" />
<glyph unicode="&#xe928;" d="M1004.001 363.961h-40c-33.086 0-60-26.914-60-60v-49.992h-156.735l-71.961 143.914 211.953 98.836c29.984 13.992 42.992 49.758 29.008 79.734-0.469 1.023-116.141 249.055-118.336 253.758-23.336 50.078-82.789 71.75-132.867 48.383l-653.501-304.282c-10.063-4.68-14.391-16.68-9.625-26.703l51.656-108.766c2.852-5.992 8.484-10.188 15.047-11.188l77.274-11.813-12.641-5.891c-10.008-4.664-14.344-16.57-9.68-26.578l67.617-145.024c4.664-10 16.57-14.344 26.586-9.672l54.391 25.367 8.445-18.125c4.672-10.031 16.586-14.336 26.578-9.68l241.164 112.453 93.008-186.024c11.93-23.875 35.922-38.703 62.617-38.703h200v-50c0-33.086 26.914-60 60-60h40c11.039 0 20 8.953 20 20v320c0 11.039-8.953 19.992-20 19.992zM46.719 546.563l635.243 295.774c30.039 14.016 65.703 1.039 79.719-29.023l76.078-163.133-467.454-217.969c-10.789-5.031-22.688-6.742-34.422-4.938-12.641 1.93-106.102 16.211-118.617 18.125v-0.008l-132.094 20.203zM219.016 273.383l-50.711 108.766 36.266 16.898 50.711-108.75zM248.164 400.211l81.656-12.477c19.539-3 39.391-0.172 57.391 8.219l467.454 217.969 25.352-54.375c4.672-10.008 0.352-21.906-9.664-26.578l-561.907-262.024zM704.001 153.968c-11.438 0-21.719 6.352-26.828 16.578l-92.531 185.063 54.398 25.359 77.977-155.945c3.383-6.781 10.313-11.055 17.883-11.055h169.102v-60zM984.001 43.968h-20c-11.023 0-20 8.969-20 20v239.992c0 11.031 8.977 20 20 20h20z" />
<glyph unicode="&#xe929;" d="M587.657 665.961l108.758 50.719c10.016 4.664 14.344 16.563 9.672 26.578-4.664 10.008-16.563 14.336-26.578 9.672l-108.758-50.719c-10.008-4.672-14.344-16.57-9.672-26.578 4.68-10.039 16.594-14.328 26.578-9.672z" />
<glyph unicode="&#xe92a;" d="M594.876 603.133c4.68-10.039 16.594-14.328 26.578-9.672l108.766 50.719c10.008 4.664 14.336 16.563 9.672 26.578-4.672 10.008-16.57 14.336-26.578 9.672l-108.766-50.719c-10.008-4.672-14.336-16.57-9.672-26.578z" />
<glyph unicode="&#xe92b;" glyph-name="design" d="M0 533.367c7.578-5.461 15.121-11.036 22.858-16.27s15.485-10.536 23.438-15.485 15.929-9.876 24.018-14.632 16.361-9.182 24.644-13.653 16.68-8.613 25.179-12.595l12.834-5.916 12.948-5.575c8.704-3.641 17.419-7.168 26.283-10.354s17.806-6.258 26.829-8.988c4.483-1.479 9.045-2.731 13.574-3.982s9.102-2.617 13.653-3.755 9.102-2.389 13.79-3.3 9.227-2.048 13.892-2.844l13.972-2.503 14.040-2.048c9.398-1.138 18.807-2.276 28.262-2.958l7.1-0.455 7.111-0.228c4.733-0.114 9.466-0.341 14.211-0.228l14.234 0.114 14.222 0.683c4.733 0.114 9.455 0.683 14.188 1.138 2.367 0.114 4.733 0.341 7.088 0.569l7.054 1.024c9.421 1.138 18.739 3.072 28.069 4.779l43.383 8.078-43.156 9.33-13.346 2.958c-4.415 1.138-8.863 2.162-13.278 3.3l-13.244 3.527c-4.392 1.252-8.806 2.389-13.187 3.755q-13.141 3.925-26.169 8.533l-12.948 4.665-12.868 4.892-12.743 5.2-12.607 5.564-12.516 5.825c-4.153 1.98-8.215 4.142-12.345 6.224s-8.067 4.426-12.151 6.588-7.964 4.676-11.969 7.009-7.771 5.006-11.719 7.475-7.6 5.336-11.378 7.964c3.413-3.186 6.758-6.463 10.24-9.603s7.077-6.155 10.775-9.034 7.407-5.769 11.218-8.499 7.646-5.461 11.583-7.964 7.885-5.109 11.901-7.543 8.055-4.824 12.129-7.157l12.379-6.645 12.516-6.372 12.743-6.030c4.278-1.934 8.59-3.755 12.902-5.575q13.028-5.461 26.26-10.24c8.841-3.186 17.738-6.258 26.749-8.875 4.551-1.365 9.102-2.617 13.585-3.868l13.653-3.413 0.228 17.408c-9-1.365-17.954-2.844-27.011-3.755s-18.091-1.593-27.147-2.162l-13.653-0.455h-13.653c-4.551-0.114-9.102 0.228-13.653 0.455l-6.827 0.228-6.827 0.569c-9.102 0.455-18.136 1.479-27.193 2.503l-13.54 1.82-13.494 2.276c-8.977 1.593-17.92 3.527-26.84 5.461-4.471 1.024-8.932 2.048-13.358 3.186s-8.886 2.162-13.289 3.413c-8.852 2.389-17.624 5.12-26.362 7.851l-13.107 4.21-13.039 4.551-12.948 4.79-12.88 5.052-12.811 5.222-12.766 5.404q-12.698 5.564-25.27 11.503t-25.031 12.095c-8.283 4.21-16.623 8.34-24.86 12.698zM470.881 410.704l-0.033-0.042c-0.68-0.825-1.413-1.605-2.208-2.347l0.020 0.019c-2.149-2.064-4.451-3.969-7.074-5.822l0.316 0.221c-3.76-2.752-7.697-5.276-12.365-7.844-2.446-1.252-5.018-2.617-7.805-3.982s-5.837-2.389-8.932-3.755c-3.095-1.365-6.451-2.389-9.921-3.527s-7.054-2.276-10.786-3.3l1.645 0.374c-7.861-2.102-15.884-3.808-25.379-5.267-4.153-0.683-8.385-1.365-12.663-1.934l-13.028-1.024c-8.772-0.91-17.67-0.569-26.59-0.796s-17.749 0.683-26.487 1.138c-8.738 0.455-17.237 1.82-25.452 2.958s-16.134 2.389-23.563 3.982c-7.43 1.593-14.393 3.3-20.855 4.779s-12.231 3.413-17.385 5.006c-5.154 1.593-9.591 3.186-13.255 4.437-7.27 2.503-11.378 4.21-11.378 4.21s4.471 0 12.174-0.341c3.846-0.228 8.511-0.455 13.824-0.796s11.298-0.796 17.829-1.138c6.531-0.341 13.574-0.796 21.003-1.365 7.396-0.796 15.258-0.91 23.324-1.365l12.288-0.683c4.096-0.341 8.294-0.228 12.516-0.455 8.511-0.114 17.033-0.91 25.577-0.569 8.556-0.114 17.124-0.341 25.498 0.114 4.221 0.228 8.385 0.228 12.516 0.341 4.096 0.341 8.146 0.569 12.129 0.796 8.010 0.341 15.599 1.479 22.926 2.162 3.641 0.341 7.134 1.138 10.547 1.593l5.040 0.683 4.79 1.024c3.14 0.569 6.178 1.138 9.034 1.707 2.844 0.796 5.552 1.365 8.090 2.048 5.029 1.479 9.478 2.617 12.993 3.982l0.611 0.192c3.778 1.36 7.436 2.972 10.471 4.587zM1024 533.367l-24.804-12.993c-8.192-4.358-16.612-8.488-24.804-12.698s-16.68-8.203-25.099-12.095-16.794-7.794-25.27-11.503l-12.754-5.404-12.823-5.222-12.868-5.052-12.948-4.79-13.039-4.551-13.107-4.21c-8.75-2.731-17.522-5.461-26.362-7.851-4.403-1.252-8.863-2.276-13.289-3.413s-8.897-2.162-13.358-3.186c-8.92-1.934-17.863-3.868-26.84-5.461l-13.494-2.276-13.551-1.82c-9.102-1.024-18.102-2.048-27.182-2.503l-6.827-0.569-6.827-0.228c-4.551-0.228-9.102-0.569-13.653-0.455h-13.653l-13.653 0.455c-9.102 0.569-18.136 1.138-27.147 2.162s-18.022 2.389-27.022 3.755l0.228-17.408 13.71 3.413c4.551 1.252 9.102 2.503 13.585 3.868 9.023 2.617 17.909 5.689 26.761 8.875s17.579 6.599 26.249 10.24c4.324 1.82 8.636 3.641 12.914 5.575l12.732 6.030 12.572 6.372 12.39 6.645c4.073 2.276 8.090 4.779 12.129 7.157s7.964 5.029 11.89 7.543 7.748 5.291 11.594 7.964 7.487 5.689 11.218 8.499 7.214 6.007 10.775 9.034 6.827 6.417 10.24 9.603c-3.823-2.685-7.578-5.427-11.378-7.964s-7.782-5.052-11.73-7.475-7.964-4.779-11.958-6.997-8.067-4.471-12.163-6.599-8.181-4.244-12.334-6.224l-12.516-5.825-12.607-5.564-12.743-5.2-12.868-4.892-12.948-4.665q-12.982-4.551-26.169-8.533c-4.369-1.365-8.795-2.503-13.187-3.755l-13.232-3.527c-4.415-1.138-8.863-2.162-13.289-3.3l-13.335-2.958-43.156-9.33 43.383-8.078c9.318-1.707 18.637-3.641 28.069-4.779l7.054-1.024c2.355-0.228 4.722-0.455 7.088-0.569 4.722-0.455 9.444-1.024 14.188-1.138l14.222-0.683 14.222-0.114c4.745-0.114 9.489 0.114 14.222 0.228l7.111 0.228 7.088 0.455c9.466 0.683 18.876 1.82 28.274 2.958l14.040 2.048 13.972 2.503c4.665 0.796 9.25 1.934 13.881 2.844s9.216 2.162 13.79 3.3 9.102 2.389 13.653 3.755 9.102 2.503 13.574 3.982c9.023 2.731 17.954 5.803 26.829 8.988s17.59 6.713 26.294 10.354l12.948 5.575 12.823 5.916c8.511 3.982 16.873 8.26 25.19 12.595s16.532 8.909 24.644 13.653 16.043 9.626 24.007 14.632 15.701 10.24 23.438 15.485 15.371 10.729 22.994 16.191zM553.108 410.704l-0.484 0.232c3.496-1.839 7.13-3.451 11.498-5.011 3.516-1.365 7.999-2.503 12.982-3.982 2.549-0.683 5.245-1.252 8.101-2.048 2.856-0.569 5.894-1.138 9.023-1.707l4.79-1.024 5.052-0.683c3.425-0.455 6.895-1.252 10.547-1.593 7.316-0.683 14.905-1.82 22.926-2.162 3.982-0.228 8.021-0.455 12.129-0.796 4.153-0.114 8.317-0.114 12.516-0.341 8.431-0.455 16.942-0.228 25.498-0.114 8.511-0.341 17.135 0.455 25.577 0.569 4.221 0.228 8.42 0.114 12.572 0.455l12.277 0.683c8.078 0.455 15.918 0.569 23.336 1.365 7.418 0.569 14.45 1.138 20.992 1.365s12.527 0.683 17.829 1.138c5.302 0.455 9.978 0.569 13.835 0.796 7.691 0.341 12.163 0.341 12.163 0.341s-4.062-1.707-11.378-4.21c-3.664-1.252-8.112-2.958-13.255-4.437s-10.934-3.413-17.374-5.006c-6.44-1.593-13.46-3.072-20.867-4.779s-15.349-2.731-23.563-3.982c-8.215-1.252-16.725-2.389-25.452-2.958s-17.579-1.252-26.487-1.138c-8.909 0.114-17.806-0.114-26.59 0.796l-13.016 1.024c-4.289 0.569-8.522 1.252-12.663 1.934l-1.324 0.171c-8.163 1.284-16.187 2.989-22.41 4.721-3.732 1.024-7.316 2.162-10.786 3.3s-6.793 2.162-9.921 3.527c-3.129 1.365-6.178 2.276-8.932 3.755s-5.359 2.731-7.817 3.982l-0.576 0.295c-4.089 2.278-8.023 4.801-11.462 7.329l-0.188 0.126c-2.44 1.728-4.746 3.633-6.878 5.676l-0.012 0.011c-0.773 0.73-1.499 1.51-2.207 2.378zM512 362.689s-42.030 46.99-26.055 65.081c9.745 10.615 18.383 22.516 25.565 35.342l0.49 0.953c7.673-13.779 16.31-25.68 26.18-36.433l-0.125 0.138c15.963-18.091-26.055-65.081-26.055-65.081z" />
<glyph unicode="&#xe92c;" glyph-name="icon1" d="M1008.8 732.933c-11.926 14.097-29.627 22.987-49.405 22.987-0.003 0-0.006 0-0.009 0h-45.866c-20.185 35.080-57.46 58.32-100.163 58.32-0.065 0-0.129 0-0.194 0h-9.483v69.76c0 11.046-8.954 20-20 20v0c-74.632-0.091-135.109-60.568-135.2-135.191v-62.489c0-0.086 0-0.188 0-0.29 0-44.462-25.166-83.047-62.030-102.287l-0.637-0.303-65.307-33.68c-6.481-3.397-10.828-10.078-10.828-17.773 0-11.046 8.955-20.001 20.001-20.001 3.351 0 6.509 0.824 9.283 2.28l-0.11-0.052 65.307 33.68c50.46 26.302 84.32 78.223 84.32 138.053 0 0.122 0 0.244 0 0.366v-0.019 62.507c0.12 45.423 31.98 83.37 74.566 92.841l0.634 0.119v-67.52c0-11.046 8.954-20 20-20v0h29.493c0.007 0 0.016 0 0.025 0 31.062 0 57.736-18.786 69.281-45.617l0.188-0.49c3.101-7.236 10.162-12.213 18.387-12.213 0.005 0 0.009 0 0.014 0h58.266c13.587-0.008 24.599-11.025 24.599-24.613 0-1.479-0.13-2.928-0.381-4.335l0.022 0.149-7.387-42.933c-4.702-26.86-27.849-47.013-55.704-47.013-0.039 0-0.077 0-0.116 0h-90.207c-11.046 0-20-8.954-20-20v0-97.787c0-0.185 0-0.404 0-0.623 0-73.737-14.919-143.99-41.904-207.904l1.317 3.514c-0.956-2.25-1.512-4.866-1.512-7.613 0-1.806 0.24-3.556 0.691-5.22l-0.032 0.139 49.173-188.133c0.92-3.423 2.624-6.372 4.913-8.753l-0.006 0.007 17.573-18.427c1.383-1.436 2.235-3.392 2.235-5.547 0-4.418-3.582-8-8-8-0.017 0-0.034 0-0.051 0h-66.557l-85.947 222.72v92.48c0 11.046-8.954 20-20 20s-20-8.954-20-20v0-96.213c0-0.029 0-0.064 0-0.099 0-2.555 0.49-4.996 1.38-7.233l-0.046 0.132 81.733-211.76h-70.4c-10.135 62.987-64.063 110.532-129.111 110.613h-22.569l-8.933 52.987c-9.565 56.524-52.363 100.883-107.253 112.637l-0.907 0.163-37.84 8c-1.381 0.34-2.966 0.535-4.597 0.535-11.046 0-20-8.954-20-20 0-9.738 6.96-17.851 16.177-19.635l0.126-0.020 37.84-8c39.737-8.506 70.21-40.11 76.932-79.794l0.081-0.58 7.813-46.347h-123.227c-11.046 0-20-8.954-20-20s8.954-20 20-20v0h186.347c42.956-0.010 78.929-29.891 88.28-70.001l0.12-0.613h-278c-100.074 0.182-181.151 81.259-181.333 181.316v0.018c0 0.125 0 0.273 0 0.421 0 76.67 43.391 143.206 106.956 176.391l1.098 0.522 116.373 60.053c6.802 3.29 11.411 10.137 11.411 18.062 0 11.046-8.954 20-20 20-3.584 0-6.948-0.943-9.857-2.594l0.099 0.052-116.533-59.947c-31.884-16.658-58.569-39.083-79.595-66.125l-0.405-0.541c-2.119 9.62-3.333 20.671-3.333 32.004 0 57.726 31.489 108.098 78.227 134.875l0.759 0.401c10.056 5.678 16.735 16.295 16.735 28.471 0 3.068-0.424 6.037-1.217 8.852l0.055-0.23c-4.051 15.355-17.758 26.514-34.092 26.64h-0.521c-119.36-0.133-218.4-98.48-220.827-219.36-0.022-1.175-0.035-2.56-0.035-3.948 0-85.443 47.668-159.752 117.861-197.784l1.187-0.588c21.558-101.625 110.478-176.791 216.974-176.907h498.679c26.499 0.014 47.975 21.499 47.975 48 0 12.877-5.071 24.57-13.325 33.191l0.017-0.017-14 14.64-46.187 176.72c25.983 63.17 41.067 136.5 41.067 213.354 0 0.227 0 0.454 0 0.681v-0.035 77.787h70.267c0.051 0 0.112 0 0.173 0 47.527 0 87.024 34.385 94.97 79.635l0.084 0.579 7.333 43.040c0.605 3.317 0.95 7.134 0.95 11.032 0 15.888-5.744 30.434-15.268 41.675l0.078-0.094zM40 371.28c1.84 92.453 72.267 168.853 160.933 179.013-48.703-35.933-79.956-93.086-80-157.539v-0.007c0-0.119 0-0.259 0-0.399 0-27.823 5.889-54.271 16.488-78.165l-0.487 1.231c-13.348-28.032-21.473-60.826-22.262-95.432l-0.005-0.275c-45.535 34.063-74.693 87.855-74.693 148.457 0 1.096 0.010 2.189 0.029 3.281l-0.002-0.164zM833.44 692.16c3.649 3.632 5.907 8.659 5.907 14.213 0 11.075-8.978 20.053-20.053 20.053s-20.053-8.978-20.053-20.053c0-11.070 8.97-20.046 20.039-20.053h0.001c5.523 0.015 10.522 2.242 14.162 5.842l-0.002-0.002zM449.707 490.72c11.046 0 20 8.954 20 20s-8.954 20-20 20v0c-11.046 0-20-8.954-20-20s8.954-20 20-20v0z" />
<glyph unicode="&#xe92d;" glyph-name="icon2" d="M962 454.507h-18v317.333c21.059 5.121 36.45 23.817 36.45 46.107 0 26.076-21.062 47.233-47.103 47.386h-86.682c-0.034 0-0.074 0-0.114 0-26.171 0-47.387-21.216-47.387-47.387 0-22.053 15.065-40.588 35.465-45.874l0.329-0.072c-6.381-43.899-43.723-77.253-88.872-77.333h-468.168c-45.157 0.080-82.499 33.434-88.822 76.848l-0.058 0.486c20.729 5.359 35.794 23.894 35.794 45.947 0 26.171-21.216 47.387-47.387 47.387-0.040 0-0.080 0-0.12 0h-86.527c-26.151-0.026-47.341-21.232-47.341-47.387 0-22.372 15.503-41.123 36.352-46.095l0.322-0.065v-317.333h-18.133c-34.211-0.030-61.939-27.74-62-61.941v-348.513c0.015-7.726 6.274-13.985 13.999-14h80.001c7.726 0.015 13.985 6.274 14 13.999v0.001c0.045 49.614 40.253 89.821 89.862 89.867h628.271c49.614-0.045 89.821-40.253 89.867-89.862v-0.004c0.015-7.726 6.274-13.985 13.999-14h80.001c7.726 0.015 13.985 6.274 14 13.999v348.508c-0.030 34.229-27.771 61.97-61.997 62h-0.003zM827.253 817.92c0 10.722 8.692 19.413 19.413 19.413v0h86.667c10.722 0 19.413-8.692 19.413-19.413s-8.692-19.413-19.413-19.413h-86.667c-10.722 0-19.413 8.692-19.413 19.413v0zM71.387 817.92c0 10.722 8.692 19.413 19.413 19.413v0h86.533c10.722 0 19.413-8.692 19.413-19.413s-8.692-19.413-19.413-19.413h-86.533c-10.722 0-19.413 8.692-19.413 19.413v0zM108.053 770.507h52.8c7.255-58.812 56.867-103.909 117.030-104h468.197c60.133 0.083 109.723 45.112 116.981 103.289l0.059 0.577h52.8v-316h-60.933v65.493c-0.061 43.054-34.946 77.939-77.994 78h-200.993c-26.416-0.018-49.755-13.178-63.833-33.295l-0.167-0.251c-14.245 20.369-37.584 33.529-63.997 33.547h-201.016c-43.054-0.061-77.939-34.946-78-77.994v-65.366h-60.933zM196.987 454.507v65.36c0.045 27.596 22.404 49.955 49.996 50h201.017c27.602-0.030 49.97-22.398 50-49.997v-65.363zM526 519.867c0.030 27.602 22.398 49.97 49.997 50h201.016c27.597-0.030 49.958-22.401 49.973-49.999v-65.361h-300.987zM28 392.507c0.015 18.772 15.228 33.985 33.999 34h900.001c18.772-0.015 33.985-15.228 34-33.999v-110.668h-968zM996 57.947h-52.8c-7.294 58.766-56.898 103.808-117.034 103.867h-628.299c-60.149-0.057-109.76-45.097-117.008-103.29l-0.059-0.577h-52.8v195.893h968z" />
<glyph unicode="&#xe92e;" glyph-name="icon3" d="M1005.561-20.028h-32.393v226.485c-0.036 6.865-3.989 12.798-9.737 15.682l-0.102 0.046-97.849 48.255v102.4c5.83-1.68 12.526-2.646 19.448-2.646 40.198 0 72.784 32.587 72.784 72.784 0 27.987-15.796 52.285-38.96 64.464l-0.399 0.191-358.467 187.198v66.092c0 9.703-7.866 17.569-17.569 17.569v0h-13.185v25.299l139.277 45.411c7.143 2.338 12.212 8.943 12.212 16.732s-5.069 14.394-12.088 16.697l-0.124 0.035-139.277 45.344v4.384c0 23.425-35.137 23.425-35.137 0v-153.935h-13.185c-9.695-0.019-17.55-7.873-17.569-17.567v-66.060l-358.5-187.198c-23.493-12.4-39.232-36.667-39.232-64.61 0-40.216 32.602-72.818 72.818-72.818 6.863 0 13.505 0.949 19.8 2.724l-0.513-0.124v-102.4l-97.815-48.222c-5.849-2.93-9.802-8.863-9.838-15.723v-226.49h-32.393c-23.425 0-23.425-35.137 0-35.137h987.993c23.425 0 23.425 35.137 0 35.137zM606.302 865.899l-77.168-25.132v50.196zM938.031 195.48v-215.508h-72.517v251.282zM695.283 54.63h-367.435v39.019h367.435zM695.283 128.786h-367.435v39.019h367.435zM327.847 19.493h367.435v-39.019h-367.435zM695.283 277.166h-367.435v38.952h367.435zM695.283 242.029v-39.019h-367.435v38.952zM730.42 333.62c-0.019 9.695-7.873 17.55-17.567 17.569h-402.575c-9.695-0.019-17.55-7.873-17.569-17.567v-353.717h-99.957v409.265l318.812 166.517 318.812-166.517v-409.198h-99.957zM524.75 743.354v-33.933c-3.964 0.766-8.523 1.205-13.185 1.205s-9.221-0.438-13.638-1.276l0.453 0.072v33.933zM105.111 425.445c-2.743 5.102-4.355 11.163-4.355 17.601 0 14.464 8.135 27.028 20.079 33.366l0.205 0.099 373.057 194.761c5.061 2.705 11.071 4.294 17.452 4.294s12.39-1.589 17.654-4.392l-0.203 0.099 373.091-194.761c12.152-6.434 20.29-18.999 20.29-33.464 0-20.844-16.897-37.741-37.741-37.741-6.379 0-12.388 1.582-17.656 4.376l0.205-0.099-347.491 181.509c-2.361 1.249-5.161 1.982-8.132 1.982s-5.771-0.733-8.228-2.029l0.096 0.046-347.491-181.476c-5.062-2.689-11.068-4.267-17.442-4.267-14.448 0-27.002 8.11-33.358 20.026l-0.099 0.203zM85.032 195.346l72.517 35.773v-251.282h-72.45z" />
<glyph unicode="&#xe92f;" glyph-name="icon4" d="M447.456 431.694c18.125 16.306-5.495 43.814-24.369 28.544-14.022-11.774-32.789-45.277-3.211-87.236 4.489-6.019 7.187-13.604 7.187-21.819 0-10.333-4.268-19.668-11.138-26.34l-0.009-0.009c-17.84-17.554 8.599-44.171 26.367-26.617 13.693 13.499 22.176 32.253 22.176 52.987 0 16.27-5.223 31.32-14.084 43.565l0.15-0.217c-15.735 22.371-6.387 34.145-3.068 37.285zM524.916 431.694c4.031 3.467 6.569 8.573 6.569 14.272 0 10.377-8.412 18.789-18.789 18.789-4.678 0-8.956-1.709-12.245-4.538l0.025 0.021c-14.022-11.846-32.754-45.277-3.211-87.236 4.489-6.019 7.187-13.604 7.187-21.819 0-10.333-4.268-19.668-11.138-26.34l-0.009-0.009c-17.84-17.554 8.634-44.171 26.367-26.617 13.706 13.491 22.198 32.243 22.198 52.979 0 16.276-5.232 31.329-14.105 43.571l0.149-0.216c-15.735 22.371-6.351 34.145-2.997 37.285zM602.305 431.694c18.125 16.306-5.495 43.814-24.369 28.544-14.058-11.774-32.825-45.277-3.211-87.236 4.482-6.020 7.175-13.603 7.175-21.815 0-10.332-4.263-19.668-11.127-26.344l-0.008-0.008c-17.84-17.554 8.599-44.171 26.367-26.617 13.687 13.493 22.166 32.238 22.166 52.963 0 16.282-5.233 31.341-14.109 43.588l0.149-0.216c-15.77 22.371-6.351 34.145-3.033 37.285zM900.62 960h-777.526c-44.32-0.041-80.238-35.958-80.279-80.275v-777.495c0.039-35.492 23.083-65.591 55.021-76.191l0.567-0.163v-69.361c0-10.345 8.386-18.732 18.732-18.732v0h789.408c10.345 0 18.732 8.386 18.732 18.732v0 69.361c32.506 10.763 55.55 40.862 55.589 76.349v777.496c-0.061 44.3-35.946 80.198-80.235 80.279h-0.008zM943.436 879.721v-144.502h-538.76v187.317h495.944c23.646 0 42.815-19.169 42.815-42.815v0zM123.13 922.537h244.369v-187.317h-287.184v144.502c0 23.646 19.169 42.815 42.815 42.815v0zM135.974-24.753v46.704h751.944v-46.704zM900.692 59.415h-777.598c-23.646 0-42.815 19.169-42.815 42.815v0 595.526h863.121v-595.526c0-23.646-19.169-42.815-42.815-42.815v0zM196.772 771.327c0.011 0 0.023 0 0.036 0 32.159 0 58.229 26.070 58.229 58.229s-26.070 58.229-58.229 58.229c-32.159 0-58.229-26.070-58.229-58.229v0c0-32.146 26.050-58.209 58.191-58.229h0.002zM196.772 850.286c0.011 0 0.023 0 0.036 0 11.468 0 20.765-9.297 20.765-20.765s-9.297-20.765-20.765-20.765c-11.468 0-20.765 9.297-20.765 20.765 0 0.013 0 0.025 0 0.038v-0.002c0 0.011 0 0.023 0 0.036 0 11.429 9.265 20.694 20.694 20.694 0.013 0 0.025 0 0.038 0h-0.002zM622.464 771.327h264.028c10.35 0.020 18.732 8.415 18.732 18.767 0 0 0 0 0 0v0 78.923c0 10.345-8.386 18.732-18.732 18.732v0h-264.028c-10.345 0-18.732-8.386-18.732-18.732v0-78.923c0 0 0 0 0 0 0-10.352 8.382-18.747 18.73-18.767h0.002zM641.195 850.286h226.564v-41.495h-226.564zM463.226 771.327h79.101c10.35 0.020 18.732 8.415 18.732 18.767 0 0 0 0 0 0v0 78.923c0 10.345-8.386 18.732-18.732 18.732v0h-79.101c-10.345 0-18.732-8.386-18.732-18.732v0-78.923c0 0 0 0 0 0 0-10.352 8.382-18.747 18.73-18.767h0.002zM481.958 850.286h41.495v-41.495h-41.495zM511.857 654.869c-153.701 0-278.3-124.599-278.3-278.3s124.599-278.3 278.3-278.3c153.701 0 278.3 124.599 278.3 278.3v0c0 153.701-124.599 278.3-278.3 278.3v0zM511.857 135.734c-133.010 0-240.836 107.826-240.836 240.836s107.826 240.836 240.836 240.836c133.010 0 240.836-107.826 240.836-240.836v0c0-0.011 0-0.023 0-0.036 0-132.99-107.81-240.801-240.801-240.801-0.013 0-0.025 0-0.038 0h0.002zM511.857 575.518c-109.876 0-198.949-89.072-198.949-198.949s89.072-198.949 198.949-198.949c109.876 0 198.949 89.072 198.949 198.949v0c-0.041 109.86-89.088 198.908-198.944 198.949h-0.004zM511.857 215.156c-89.186 0-161.485 72.299-161.485 161.485s72.299 161.485 161.485 161.485c89.173 0 161.465-72.279 161.485-161.447v-0.002c-0.020-89.185-72.303-161.48-161.481-161.521h-0.004z" />
<glyph unicode="&#xe930;" glyph-name="icon5" d="M956.491 943.461c-2.225 3.262-5.62 5.584-9.568 6.37l-0.096 0.016-50.826 9.895c-0.859 0.173-1.846 0.273-2.857 0.273-7.338 0-13.453-5.234-14.817-12.172l-0.016-0.096-86.752-451.107-12.944 2.876c-0.935 0.205-2.009 0.323-3.11 0.323-7.31 0-13.409-5.184-14.822-12.076l-0.017-0.098-39.062-196.746c-2.876 1.323-5.753 2.876-8.629 3.941-105.535 41.679-255.31 101.738-370.049 152.219-23.474 10.565-50.885 16.72-79.734 16.72-109.596 0-198.444-88.831-198.472-198.42v-53.964c0.18-151.241 122.737-273.798 273.961-273.978h306.182c0.193-0.001 0.422-0.001 0.651-0.001 101.797 0 184.32 82.523 184.32 184.32 0 7.481-0.446 14.857-1.312 22.105l0.085-0.875 62.993 317.239c0.181 0.879 0.285 1.889 0.285 2.924 0 7.234-5.077 13.283-11.863 14.776l-0.1 0.019-8.14 1.726 87.040 452.631c0.157 0.819 0.247 1.76 0.247 2.723 0 3.148-0.963 6.071-2.611 8.49l0.034-0.052zM792.938 76.8c-19.926-63.722-78.417-109.161-147.521-109.161-0.195 0-0.391 0-0.586 0.001h-306.134c-134.611 0.098-243.714 109.171-243.862 243.761v53.975c0.098 92.893 75.377 168.172 168.26 168.27h0.009c0.089 0 0.194 0 0.3 0 24.358 0 47.494-5.232 68.346-14.633l-1.050 0.423c115.2-50.682 265.377-111 371.056-152.651 57.89-23.553 97.959-79.376 97.959-144.559 0-16.208-2.478-31.838-7.075-46.531l0.297 1.103zM810.197 205.203c-14.474 28.581-35.112 52.157-60.284 69.668l-0.609 0.401 38.026 191.367 13.318-2.876 58.362-12.397zM842.24 485.853l-21.084 4.458 83.991 436.868 21.17-4.056zM582.673 115.775h-343.558c-20.135 0-20.135-30.202 0-30.202h343.558c20.135 0 20.135 30.202 0 30.202zM239.116 152.219h266.758c20.135 0 20.135 30.202 0 30.202h-266.758c-20.135 0-20.135-30.202 0-30.202zM239.116 218.837h189.843c20.135 0 20.135 30.202 0 30.202h-189.843c-20.135 0-20.135-30.202 0-30.202zM239.116 285.483h113.158c20.135 0 20.135 30.202 0 30.202h-113.158c-20.135 0-20.135-30.202 0-30.202z" />
<glyph unicode="&#xe931;" glyph-name="icon6" d="M1005.939 79.988h-81.669v637.895c-0.030 4.111-1.56 7.86-4.069 10.73l0.017-0.019s0 0.22-0.188 0.314l-104.128 115.687c-3.028 3.358-7.393 5.462-12.25 5.466h-584.969c-4.825-0.020-9.155-2.12-12.143-5.45l-0.014-0.015-104.19-115.655s0-0.188 0-0.251c-2.542-2.864-4.1-6.651-4.115-10.802v-637.898h-81.732c-21.988 0-21.988-32.982 0-32.982h989.448c21.988 0 21.988 32.982 0 32.982zM870.808 734.374h-240.452l-46.488 82.705h212.559zM418.207 701.393h186.016v-136.638l-85.375 44.415c-2.214 1.158-4.836 1.837-7.617 1.837s-5.403-0.679-7.71-1.881l0.092 0.044-85.407-44.415zM546.018 817.080l46.52-82.705h-162.646l46.52 82.705zM226.034 817.080h212.527l-46.488-82.705h-240.452zM131.141 79.988v621.405h254.147v-163.809c0-0.007 0-0.015 0-0.024 0-9.090 7.369-16.459 16.459-16.459 2.791 0 5.419 0.694 7.722 1.92l-0.089-0.043 101.835 52.959 101.897-52.959c2.207-1.17 4.824-1.856 7.601-1.856 9.108 0 16.491 7.383 16.491 16.491 0 0.001 0 0.002 0 0.003v0 163.777h254.084v-621.405z" />
<glyph unicode="&#xe932;" glyph-name="icon7" d="M528.516 176.42v493.172c0 9.122-7.395 16.516-16.516 16.516s-16.516-7.395-16.516-16.516v0-493.172c0-9.122 7.395-16.516 16.516-16.516s16.516 7.395 16.516 16.516v0zM1007.484 793.683c-34.904 0-78.424 15.057-124.504 30.995-58.329 20.205-124.449 43.107-193.046 43.107-79.332 0-127.752-34.766-154.398-63.945-8.527-9.33-16.297-19.648-23.035-30.665l-0.5-0.88c-7.227 11.9-14.998 22.219-23.672 31.697l0.136-0.151c-26.646 29.178-75.038 63.945-154.398 63.945-68.597 0-134.717-22.902-193.046-43.107-46.080-15.938-89.6-30.995-124.504-30.995-9.122 0-16.516-7.395-16.516-16.516v0-665.27c0-9.122 7.395-16.516 16.516-16.516v0c40.465 0 86.545 15.966 135.295 32.84 55.88 19.269 119.219 41.29 182.228 41.29 54.063 0 97.803-17.892 130.037-53.209 3.032-3.308 7.372-5.374 12.194-5.374 9.125 0 16.522 7.397 16.522 16.522 0 4.302-1.644 8.221-4.339 11.161l0.011-0.012c-26.646 29.178-75.066 63.945-154.426 63.945-68.569 0-134.689-22.902-193.018-43.107-39.171-13.516-76.277-26.398-107.988-30.032v632.045c36.308 3.468 76.525 17.397 118.778 32.014 55.88 19.269 119.219 41.29 182.228 41.29 127.477 0 160.84-101.216 162.188-105.483 2.155-6.786 8.4-11.617 15.773-11.617s13.617 4.831 15.741 11.5l0.032 0.117c0.33 1.074 33.775 105.483 162.161 105.483 63.037 0 126.376-22.022 182.255-41.29 42.226-14.617 82.581-28.545 118.778-32.014v-632.045c-31.711 3.634-68.817 16.516-107.988 30.032-58.329 20.205-124.449 43.107-193.046 43.107-79.36 0-127.752-34.766-154.398-63.945-2.684-2.928-4.328-6.846-4.328-11.148 0-9.125 7.397-16.522 16.522-16.522 4.823 0 9.163 2.066 12.183 5.362l0.011 0.012c32.234 35.317 75.974 53.209 130.009 53.209 63.037 0 126.376-22.022 182.255-41.29 48.75-16.874 94.83-32.84 135.295-32.84 9.122 0 16.516 7.395 16.516 16.516v0 665.27c0 9.122-7.395 16.516-16.516 16.516v0zM1007.484 62.348c-34.904 0-78.424 15.085-124.504 31.023-58.329 20.205-124.449 43.107-193.046 43.107-74.515 0-121.751-30.692-149.278-58.577h-57.311c-27.527 27.885-74.763 58.577-149.306 58.577-68.569 0-134.689-22.902-193.018-43.107-46.080-15.938-89.6-31.023-124.504-31.023-9.122 0-16.516-7.395-16.516-16.516s7.395-16.516 16.516-16.516v0c40.465 0 86.545 15.966 135.295 32.84 55.88 19.269 119.219 41.29 182.228 41.29 54.063 0 97.803-17.892 130.037-53.209 3-3.344 7.318-5.454 12.13-5.505h71.579c0.003 0 0.006 0 0.009 0 4.819 0 9.156 2.064 12.175 5.356l0.011 0.012c32.234 35.317 75.974 53.209 130.009 53.209 63.037 0 126.376-22.022 182.255-41.29 48.695-16.736 94.775-32.702 135.24-32.702 9.122 0 16.516 7.395 16.516 16.516s-7.395 16.516-16.516 16.516v0z" />
<glyph unicode="&#xe933;" glyph-name="icon8" d="M367.576 653.864c0.008 0 0.017 0 0.026 0 8.324 0 15.072 6.748 15.072 15.072 0 2.869-0.801 5.55-2.193 7.833l0.038-0.066c-5.753 9.492-11.506 19.675-17.747 30.72-10.010 17.258-35.84 2.618-26.319-14.842q9.492-16.913 18.121-31.382c2.673-4.423 7.456-7.335 12.919-7.335 0.029 0 0.058 0 0.087 0h-0.004zM1001.593 128.777c-5.645 3.118-12.374 4.953-19.532 4.953-8.25 0-15.931-2.437-22.362-6.632l0.158 0.096c-13.751-8.962-30.065-18.245-46.919-26.601l-2.9-1.3-93.742 212.566c42.686 19.243 62.964 55.486 68.228 121.672 6.731-57.701 15.964-105.507 49.273-124.836 8.802-5.141 19.378-8.177 30.664-8.177 0.344 0 0.686 0.003 1.029 0.008l-0.052-0.001c17.638 0.655 34.122 4.947 48.935 12.141l-0.727-0.319c5.375 2.392 9.054 7.685 9.054 13.838 0 4.325-1.818 8.226-4.733 10.979l-0.007 0.007c-5.753 5.35-10.758 9.722-15.36 13.634-24.708 21.027-30.576 26.031-23.011 158.202 2.733 47.748-12.311 84.020-42.341 102.112-33.050 19.933-79.648 15.446-128.805-12.081-26.874 12.048-58.246 19.066-91.257 19.066-2.148 0-4.289-0.030-6.423-0.089l0.314 0.007h-163.322c-15.815 21.209-30.389 45.226-42.605 70.595l-1.145 2.639-8.198 17.489c-38.342 82.265-81.776 174.914-177.359 193.985-2.389 9.319-4.889 16.988-7.8 24.45l0.494-1.439c-2.311 5.582-7.714 9.438-14.018 9.438-1.747 0-3.425-0.296-4.986-0.841l0.106 0.032c-15.1-5.48-28.005-13.766-38.668-24.315l0.009 0.009c-11.728 16.757-24.471 31.408-38.587 44.611l-0.158 0.146c-2.642 2.321-6.128 3.737-9.945 3.737-4.257 0-8.103-1.762-10.848-4.596l-0.004-0.004c-25.082-25.888-35.61-67.107-31.64-122.333-14.455-15.154-27.767-31.692-39.624-49.291l-0.847-1.334c-9.089-12.886-17.719-25.053-27.124-35.984-10.585-12.311-22.12-23.874-33.28-35.092-31.64-31.64-61.411-61.699-61.411-100.243-0.077-1.341-0.121-2.909-0.121-4.488 0-24.402 10.478-46.357 27.181-61.611l0.065-0.058c28.189-22.378 81.978-17 137.204 13.749 15.59 8.629 28.218 10.93 38.515 6.616 25.888-10.614 40.672-61.613 52.581-102.601 3.797-13.088 7.392-25.456 11.276-36.703 5.186-15.721 10.899-29.034 17.595-41.75l-0.71 1.48c-6.477-18.058-10.222-38.892-10.222-60.6 0-29.438 6.885-57.268 19.132-81.967l-0.483 1.077-66.157-186.966c-61.937 17.262-116.112 41.583-165.579 72.701l2.573-1.51c-5.988 3.673-13.238 5.848-20.996 5.848-22.431 0-40.615-18.184-40.615-40.615 0-13.545 6.63-25.541 16.822-32.92l0.118-0.082c120.464-78.296 300.21-123.225 493.102-123.225s372.638 44.929 493.102 123.254c11.028 7.379 18.191 19.785 18.191 33.864 0 15.261-8.417 28.556-20.861 35.496l-0.206 0.106zM921.571 585.262c20.135-12.225 29.857-37.969 27.786-74.556-7.651-134.443-1.093-152.449 28.591-178.625-3.329-0.98-7.155-1.544-11.111-1.544-6.509 0-12.662 1.526-18.12 4.239l0.237-0.107c-25.169 14.67-31.094 70.242-37.393 129.093-0.719 6.731-1.438 13.519-2.215 20.336-4.315 38.774-23.673 50.826-39.551 54.019-7.861 16.524-18.625 30.462-31.759 41.71l-0.169 0.141c33.194 15.245 63.511 17.517 83.703 5.321zM494.31 591.676c9.381-2.407 20.15-3.789 31.242-3.789 0.818 0 1.634 0.008 2.448 0.022l-0.122-0.002h164.559v-57.528c-0.016-20.248-16.426-36.658-36.673-36.674h-124.78c-20.248 0.016-36.658 16.426-36.674 36.673v0.002zM468.422 696.090c2.876-5.925 5.494-11.822 8.255-17.661 11.023-23.050 22.162-42.445 34.549-60.934l-1.096 1.738c-8.71 1.097-16.588 3.844-23.594 7.925l0.295-0.159c-28.361 16.482-56.464 62.993-112.726 167.694-10.143 20.654-25.867 37.247-45.212 48.181l-0.551 0.286c-0.662 9.578-1.697 18.553-2.876 26.866 71.91-21.832 108.153-98.948 143.101-173.936zM206.497 920.651c9.47-10.284 18.367-21.483 26.417-33.305l0.65-1.011c-4.425-6.244-8.915-13.475-12.978-20.97l-0.57-1.149c-10.628-2.213-20.056-5.773-28.71-10.562l0.521 0.264c-0.071 1.635-0.112 3.553-0.112 5.481 0 22.363 5.466 43.448 15.134 61.995l-0.352-0.743zM322.991 239.173c0.538 1.498 0.85 3.227 0.85 5.028 0 2.961-0.841 5.725-2.297 8.067l0.038-0.065c-11.292 20.766-17.931 45.474-17.931 71.733 0 20.295 3.966 39.663 11.165 57.373l-0.367-1.020s0 0 0.144 0.201c6.839 17.714 15.313 33.022 25.556 46.948l-0.387-0.551c1.928 2.509 3.089 5.695 3.089 9.152 0 8.34-6.761 15.101-15.101 15.101-5.174 0-9.74-2.602-12.462-6.569l-0.033-0.051c-4.838-6.636-9.758-14.284-14.244-22.21l-0.627-1.204q-2.502 6.644-4.89 13.404c-3.624 10.47-7.105 22.436-10.787 35.178-14.382 49.676-30.778 105.996-70.127 122.132-19.128 7.853-40.874 5.062-64.719-8.227-48.007-26.751-88.507-28.534-103.263-16.827-10.083 9.765-16.341 23.427-16.341 38.551 0 1.526 0.064 3.038 0.189 4.531l-0.013-0.195c0 26.089 24.392 50.596 52.638 79.015 11.506 11.506 23.414 23.558 34.718 36.674 10.384 12.023 19.79 25.341 28.937 38.256 12.354 18.805 25.773 35.184 40.714 50.034l0.015 0.015 0.431 0.374c11.569 11.273 26.632 19.010 43.414 21.437l0.422 0.050c5.169 0.63 9.48 3.796 11.696 8.198l0.039 0.087c5.989 12.258 12.586 22.794 20.136 32.556l-0.318-0.427c0.406 0.476 0.804 1.002 1.17 1.55l0.038 0.061c6.649 8.448 14.44 15.616 23.22 21.404l0.366 0.227c5.687-19.546 9.461-42.183 10.505-65.53l0.022-0.627c0.246-5.609 3.51-10.403 8.199-12.818l0.085-0.040c17.444-8.108 31.293-21.502 39.763-38.099l0.219-0.474c0-0.259 0.23-0.518 0.374-0.777 57.384-106.858 85.774-152.91 116.868-174.972v-75.563c0.033-36.922 29.955-66.844 66.873-66.876h124.782c36.915 0.049 66.827 29.961 66.876 66.872v57.332c89.341-3.394 132.976-46.022 132.976-130.1-2.33-86.12-25.312-110.281-64.201-122.909-6.109-2.017-10.44-7.674-10.44-14.343 0-2.211 0.476-4.311 1.332-6.203l-0.038 0.095 100.358-227.581c-12.369-5.35-25.053-10.47-38.199-15.245l-74.787 169.708c-1.874 4.242-5.514 7.41-9.961 8.605l-0.106 0.024c-34.549 11.807-62.699 34.796-80.796 64.571l-0.376 0.666c-12.984 21.306-21.957 46.46-25.196 73.379l-0.087 0.89c-0.725 7.729-7.181 13.731-15.039 13.731-8.34 0-15.101-6.761-15.101-15.101 0-0.918 0.082-1.818 0.239-2.691l-0.014 0.092c3.027-23.519 9.181-44.874 18.095-64.721l-0.578 1.44h-77.807c-4.576-0.104-9.969-0.163-15.375-0.163-47.211 0-93.366 4.519-138.058 13.148l4.55-0.731c-0.966 0.221-2.076 0.347-3.215 0.347-6.499 0-12.037-4.113-14.153-9.878l-0.034-0.105-102.688-285.138q-19.732 4.056-38.745 8.831zM657.575 291.581c21.24-31.195 51.078-55.126 86.103-68.61l1.253-0.424 70.875-161.079c-88.33-27.585-189.892-43.475-295.165-43.475-3.25 0-6.497 0.015-9.74 0.045l0.496-0.004c-0.629-0.001-1.373-0.002-2.118-0.002-65.45 0-129.576 5.672-191.912 16.55l6.632-0.958 96.618 268.311c38.986-6.651 83.894-10.453 129.689-10.453 4.423 0 8.837 0.035 13.242 0.106l-0.665-0.008h34.517c21.458 0 41.334 0 59.887 0zM988.16 84.48c-115.833-75.074-289.568-118.22-476.764-118.22s-360.931 43.146-476.62 118.364c-2.713 1.906-4.464 5.022-4.464 8.546 0 3.883 2.125 7.269 5.275 9.059l0.051 0.027c1.489 0.818 3.26 1.307 5.144 1.323h0.005c2.147-0.034 4.133-0.695 5.791-1.808l-0.039 0.024c112.18-72.428 281.715-113.963 464.827-113.963s352.561 41.535 464.827 113.963c1.634 1.116 3.651 1.782 5.825 1.782 1.865 0 3.615-0.49 5.128-1.348l-0.052 0.027c3.208-1.734 5.351-5.072 5.351-8.912 0-0.052 0-0.105-0.001-0.157v0.008c0.001-0.057 0.002-0.124 0.002-0.191 0-3.492-1.752-6.574-4.426-8.415l-0.034-0.022zM229.336 776.859c-22.637 0-40.989-18.351-40.989-40.989s18.351-40.989 40.989-40.989c22.637 0 40.989 18.351 40.989 40.989v0c-0.016 22.631-18.358 40.972-40.987 40.989h-0.002zM229.336 725.084c-5.957 0-10.787 4.829-10.787 10.787s4.829 10.787 10.787 10.787c5.957 0 10.787-4.829 10.787-10.787v0c0-5.957-4.829-10.787-10.787-10.787v0z" />
<glyph unicode="&#xe934;" glyph-name="icon9" d="M979.065 809.871c2.567 4.687 4.965 10.192 6.875 15.92l0.211 0.729c3.095 9.324 4.88 20.057 4.88 31.208 0 56.459-45.769 102.227-102.227 102.227s-102.227-45.769-102.227-102.227c0-17.088 4.193-33.196 11.605-47.353l-0.268 0.563c0.202-0.403 0.461-0.749 0.663-1.152-25.533-3.903-44.874-25.68-44.935-51.986v-99.814c0-8.352 6.771-15.122 15.122-15.122v0h240.114c8.352 0 15.122 6.771 15.122 15.122v0 99.894c-0.061 26.313-19.402 48.090-44.642 51.955l-0.293 0.037zM820.208 879.751c9.587 29.271 36.657 50.041 68.578 50.041 39.771 0 72.011-32.241 72.011-72.011s-32.241-72.011-72.011-72.011c-19.474 0-37.142 7.73-50.104 20.289l0.019-0.018c-13.549 13.070-21.963 31.386-21.963 51.666 0 7.878 1.27 15.46 3.616 22.551l-0.145-0.507zM993.669 673.222h-17.513v30.302c0 20.163-30.245 20.163-30.245 0v-30.331h-114.181v30.331c0 20.163-30.245 20.163-30.245 0v-30.331h-17.542v84.685c0.049 12.371 10.089 22.381 22.467 22.381 0 0 0 0 0 0h15.814c17.744-15.42 41.080-24.819 66.61-24.819s48.866 9.399 66.735 24.925l-0.125-0.106h16.015c12.354-0.016 22.365-10.027 22.381-22.38v-0.002zM979.065 103.008c7.477 13.849 11.872 30.312 11.872 47.801 0 56.427-45.743 102.17-102.17 102.17s-102.17-45.743-102.17-102.17c0-17.067 4.185-33.156 11.584-47.298l-0.268 0.563 0.634-1.095c-25.521-3.926-44.849-25.689-44.935-51.983v-99.874c0-8.352 6.771-15.122 15.122-15.122v0h240.143c8.352 0 15.122 6.771 15.122 15.122v0 99.894c-0.061 26.313-19.402 48.090-44.642 51.955l-0.293 0.037zM820.208 172.831c9.599 29.252 36.659 50.003 68.566 50.003 39.771 0 72.011-32.241 72.011-72.011s-32.241-72.011-72.011-72.011c-22.788 0-43.104 10.585-56.299 27.106l-0.111 0.144c-9.722 12.168-15.601 27.778-15.601 44.761 0 7.864 1.26 15.433 3.59 22.517l-0.145-0.509zM993.669-33.755h-17.513v30.36c0 20.163-30.245 20.163-30.245 0v-30.36h-114.181v30.36c0 20.163-30.245 20.163-30.245 0v-30.36h-17.542v84.772c0.049 12.371 10.089 22.381 22.467 22.381 0 0 0 0 0 0h15.727c17.748-15.461 41.107-24.888 66.668-24.888s48.92 9.426 66.79 24.992l-0.122-0.104h15.986c12.361 0 22.381-10.020 22.381-22.381v0zM15.122 642.949h240.143c8.352 0 15.122 6.771 15.122 15.122v0 99.808c-0.074 26.308-19.408 48.078-44.641 51.955l-0.294 0.037c2.586 4.69 5.003 10.193 6.931 15.921l0.213 0.728c3.074 9.294 4.847 19.992 4.847 31.104 0 56.459-45.769 102.227-102.227 102.227s-102.227-45.769-102.227-102.227c0-17.047 4.173-33.119 11.552-47.252l-0.268 0.564c0.202-0.403 0.461-0.749 0.691-1.152-25.51-3.886-44.842-25.624-44.935-51.896v-99.818c0 0 0 0 0 0 0-8.342 6.754-15.106 15.092-15.122h0.002zM66.654 879.722c9.54 29.351 36.649 50.193 68.626 50.193 39.771 0 72.011-32.241 72.011-72.011 0-20.301-8.401-38.64-21.915-51.73l-0.019-0.018v-0.144c-12.928-12.462-30.541-20.139-49.948-20.139-39.771 0-72.011 32.241-72.011 72.011 0 7.812 1.244 15.333 3.544 22.376l-0.144-0.509zM30.245 757.879c0.016 12.354 10.027 22.365 22.38 22.381h16.161c17.782-15.284 41.061-24.62 66.518-24.714h0.020c0.007 0 0.014 0 0.022 0 25.442 0 48.694 9.37 66.496 24.848l-0.124-0.105h15.958c0 0 0 0 0 0 12.378 0 22.418-10.010 22.467-22.376v-84.69h-17.542v30.302c0 20.163-30.245 20.163-30.245 0v-30.331h-114.354v30.331c0 20.163-30.245 20.163-30.245 0v-30.331h-17.513zM225.395 103.008c7.486 13.855 11.887 30.328 11.887 47.829 0 56.427-45.743 102.17-102.17 102.17s-102.17-45.743-102.17-102.17c0-17.078 4.19-33.177 11.598-47.325l-0.268 0.562c0.173-0.403 0.461-0.691 0.663-1.095-25.545-3.879-44.9-25.67-44.935-51.988v-99.869c0-8.352 6.771-15.122 15.122-15.122v0h240.143c8.352 0 15.122 6.771 15.122 15.122v0 99.894c-0.078 26.325-19.441 48.104-44.7 51.955l-0.293 0.037zM66.654 172.831c9.525 29.376 36.647 50.242 68.642 50.242 39.771 0 72.011-32.241 72.011-72.011 0-20.224-8.337-38.501-21.762-51.581l-0.015-0.015c-0.088-0.093-0.182-0.178-0.282-0.255l-0.006-0.004c-12.928-12.463-30.542-20.14-49.95-20.14-39.771 0-72.011 32.241-72.011 72.011 0 7.78 1.234 15.273 3.517 22.292l-0.143-0.509zM240.143-33.755h-17.542v30.36c0 20.163-30.245 20.163-30.245 0v-30.36h-114.354v30.36c0 20.163-30.245 20.163-30.245 0v-30.36h-17.513v84.772c0 12.361 10.020 22.381 22.381 22.381v0h16.073c17.786-15.344 41.106-24.71 66.612-24.772h0.013c0.046 0 0.1 0 0.154 0 25.422 0 48.653 9.383 66.419 24.875l-0.121-0.103h15.9c0 0 0 0 0 0 12.378 0 22.418-10.010 22.467-22.376v-0.005zM728.754 323.91c20.836 35.613 33.139 78.415 33.139 124.090s-12.303 88.477-33.776 125.272l0.637-1.182c-0.524 1.265-1.162 2.357-1.926 3.346l0.025-0.033c-32.516 53.971-83.332 94.107-143.687 112.141l-1.776 0.456c-0.504 0.19-1.122 0.369-1.756 0.503l-0.088 0.016c-20.24 5.952-43.494 9.376-67.547 9.376s-47.306-3.424-69.299-9.811l1.752 0.436c-0.703-0.131-1.322-0.31-1.913-0.543l0.070 0.024c-62.132-18.487-112.949-58.624-144.832-111.47l-0.631-1.127c-0.739-0.956-1.378-2.048-1.866-3.217l-0.035-0.095c-20.836-35.613-33.139-78.415-33.139-124.090s12.303-88.477 33.776-125.272l-0.637 1.182c0.524-1.265 1.162-2.357 1.926-3.346l-0.025 0.033c32.574-54.032 83.486-94.197 143.945-112.2l1.777-0.454c0.663-0.202 1.325-0.403 2.016-0.547 20.148-5.884 43.294-9.268 67.23-9.268s47.081 3.385 68.984 9.701l-1.754-0.433c0.811 0.174 1.496 0.373 2.161 0.612l-0.115-0.036c62.192 18.465 113.063 58.618 144.976 111.499l0.631 1.126c0.739 0.956 1.378 2.048 1.866 3.217l0.035 0.095zM527.122 228.855v85.549h79.011c-8.55-30.174-21.778-56.494-39.051-79.617l0.453 0.635c-11.731-3.193-25.494-5.527-39.625-6.528l-0.701-0.040zM456.465 235.394c-16.801 22.502-30.027 48.829-38.179 77.3l-0.419 1.711h79.011v-85.549c-14.816 1.013-28.581 3.338-41.848 6.885l1.522-0.346zM293.086 432.878h76.332c0.784-31.672 4.334-62.019 10.421-91.438l-0.57 3.296h-61.037c-13.919 25.517-23.014 55.539-25.252 87.453l-0.039 0.689zM318.376 551.264h61.008c-5.524-26.137-9.064-56.487-9.811-87.529l-0.012-0.612h-76.476c2.276 32.603 11.372 62.624 25.861 89.29l-0.571-1.149zM496.964 667.058v-85.549h-79.097c8.543 30.174 21.772 56.496 39.050 79.615l-0.452-0.633c11.731 3.193 25.494 5.527 39.625 6.528l0.701 0.040zM567.621 660.52c16.801-22.493 30.027-48.811 38.179-77.272l0.419-1.71h-79.097v85.549c14.832-1.040 28.595-3.375 41.865-6.917l-1.539 0.349zM731.145 463.122h-76.562c-0.784 31.672-4.334 62.019-10.421 91.438l0.57-3.296h61.008c13.94-25.513 23.047-55.537 25.281-87.455l0.039-0.687zM624.424 463.122h-97.302v88.142h86.702c5.876-26.127 9.663-56.443 10.5-87.496l0.014-0.646zM496.964 551.264v-88.113h-97.302c0.862 31.694 4.658 61.999 11.133 91.297l-0.591-3.184zM399.662 432.878h97.215v-88.142h-86.702c-5.876 26.127-9.663 56.443-10.5 87.496l-0.014 0.646zM527.151 344.736v88.142h97.186c-0.862-31.705-4.658-62.019-11.133-91.328l0.591 3.186zM654.582 432.878h76.332c-2.261-32.603-11.359-62.627-25.86-89.287l0.57 1.145h-60.864c5.524 26.137 9.064 56.487 9.811 87.529l0.012 0.612zM686.267 581.509h-48.68c-6.443 23.275-14.299 43.362-23.922 62.406l0.878-1.916c28.515-15.297 52.398-35.61 71.289-59.985l0.376-0.505zM409.456 642.142c-8.751-17.169-16.609-37.307-22.48-58.274l-0.564-2.359h-48.622c19.253 24.941 43.138 45.303 70.494 60.056l1.171 0.578zM337.79 314.491h48.622c6.434-23.327 14.292-43.464 23.922-62.555l-0.879 1.921c-28.528 15.331-52.412 35.693-71.287 60.123l-0.379 0.51zM614.544 253.858c8.751 17.169 16.609 37.307 22.48 58.274l0.564 2.359h48.622c-19.259-24.934-43.143-45.294-70.493-60.055l-1.172-0.578z" />
<glyph unicode="&#xe935;" glyph-name="icon10" d="M0 86v-60h126.46l45-90h681.080l45 90h126.46v60h-1024zM165 386h62.7l4.44-11.14c25.3-63.26 49.4-123.56 56-228.86h447.68c6.64 105.3 30.74 165.6 56 228.86 30.58 76.38 62.18 155.36 62.18 311.14v30h-689c-91.127 0-165-73.873-165-165s73.873-165 165-165v0zM165 656h5.42c2.56-92.64 17-156.32 34.94-210h-40.36c-57.99 0-105 47.010-105 105s47.010 105 105 105v0zM542 960h60v-184h-60v184zM422 960h60v-184h-60v184z" />
<glyph unicode="&#xe936;" glyph-name="icon11" d="M995.36 646.4c-8.489 7.521-19.723 12.113-32.029 12.113-19.195 0-35.78-11.173-43.605-27.371l-0.126-0.289c-38.56-80.613-124.293-259.653-124.293-259.653-4.882-10.178-15.105-17.081-26.941-17.081-7.138 0-13.689 2.511-18.819 6.697l0.054-0.043c-2.933 2.24-78.347 57.547-237.6 57.547s-234.667-55.307-237.547-57.547c-5.076-4.144-11.628-6.655-18.766-6.655-11.836 0-22.059 6.903-26.864 16.902l-0.077 0.179c-121.253 250.667-100.693 208-125.333 259.76-7.83 16.272-24.188 27.303-43.123 27.303-12.117 0-23.179-4.518-31.594-11.96l0.051 0.044c-17.616-15.913-28.639-38.838-28.639-64.337 0-12.595 2.689-24.562 7.525-35.358l-0.22 0.549c65.627-144 37.627-79.867 124.587-286.4l32-79.84c4.562-11.153 15.325-18.87 27.892-18.88h65.895v-49.2c-0.001-0.098-0.002-0.214-0.002-0.33 0-16.184 12.581-29.43 28.496-30.491l0.093-0.005c0.438-0.023 0.951-0.036 1.467-0.036 16.569 0 30 13.431 30 30 0 0.003 0 0.006 0 0.010v-0.001 50.053h388.373v-49.2c-0.001-0.099-0.002-0.215-0.002-0.332 0-16.175 12.566-29.415 28.468-30.49l0.094-0.005c0.446-0.024 0.968-0.037 1.493-0.037 16.569 0 30 13.431 30 30 0 0.004 0 0.007 0 0.011v-0.001 50.053h66.053c0.006 0 0.014 0 0.022 0 12.558 0 23.313 7.723 27.773 18.68l0.072 0.2c40.24 100.533 17.467 45.333 104.427 251.947 55.36 121.413 52.24 114.667 52.48 115.12 4.405 10.031 6.968 21.724 6.968 34.015 0 25.518-11.049 48.456-28.624 64.289l-0.078 0.069zM268.453 427.013c132.053 68.587 355.12 68.56 487.147 0 106.933 221.067 85.333 176 111.040 231.067-82.576 96.114-204.264 156.613-340.082 156.613-0.027 0-0.055 0-0.082 0h-28.902c-0.051 0-0.111 0-0.172 0-135.946 0-257.733-60.621-339.805-156.305l-0.504-0.601c28.053-58.667 6.507-13.867 111.36-230.693zM610.267 595.413c1.541 15.275 14.332 27.098 29.883 27.098 16.583 0 30.027-13.443 30.027-30.027s-13.443-30.027-30.027-30.027c-2.082 0-4.115 0.212-6.077 0.615l0.194-0.033c-13.864 2.843-24.143 14.943-24.143 29.445 0 1.031 0.052 2.051 0.154 3.055l-0.010-0.126zM482.267 627.413c1.554 15.263 14.338 27.072 29.881 27.072 16.583 0 30.027-13.443 30.027-30.027s-13.443-30.027-30.027-30.027c-2.081 0-4.113 0.212-6.075 0.615l0.194-0.033c-13.865 2.842-24.146 14.943-24.146 29.445 0 1.041 0.053 2.069 0.156 3.082l-0.011-0.127zM354.267 595.413c1.554 15.263 14.338 27.072 29.881 27.072 16.583 0 30.027-13.443 30.027-30.027s-13.443-30.027-30.027-30.027c-2.081 0-4.113 0.212-6.075 0.615l0.194-0.033c-13.866 2.854-24.144 14.96-24.144 29.467 0 1.033 0.052 2.054 0.154 3.060l-0.010-0.127z" />
<glyph unicode="&#xe937;" glyph-name="icon12" d="M446 434.533v-99.947h132v99.947l-66 54.987zM33.147 245.76c23.112 25.11 56.139 40.787 92.827 40.787 24.434 0 47.244-6.954 66.559-18.99l-0.533 0.31v607.973c-83.76 51.547-192-8.933-192-107.227v-556zM832 267.867c18.782 11.731 41.594 18.688 66.031 18.688 36.688 0 69.714-15.68 92.741-40.705l0.081-0.089 33.147-33.147v556c0 98.347-108.267 158.773-192 107.253zM946.933 204.88c-12.123 13.359-29.554 21.713-48.935 21.713-36.284 0-65.73-29.28-65.998-65.501v-0.025c-0.010-16.578-13.242-30.063-29.721-30.479l-0.039-0.001c-0.071-0.001-0.156-0.001-0.24-0.001-16.569 0-30 13.431-30 30 0 0.010 0 0.019 0 0.029v-0.002 605.973h-520v-605.173c0.001-0.083 0.001-0.182 0.001-0.28 0-16.18-12.563-29.426-28.467-30.514l-0.095-0.005c-0.43-0.022-0.934-0.035-1.44-0.035-16.569 0-30 13.431-30 30 0 0.012 0 0.024 0 0.036v-0.002c-0.013 36.441-29.557 65.978-66 65.978-19.38 0-36.81-8.353-48.884-21.656l-0.049-0.055c-0.747-0.827-24.16-24.213-24-24-64.667-64.72-21.067-178.32 72.933-178.32 11.467 0 772.96 0 776.32 0 90.48 3.067 132.587 114.187 68.587 178.213-24.347 24.32-23.28 23.253-24 24zM638 304.613c0-0.008 0-0.017 0-0.027 0-16.569-13.431-30-30-30 0 0 0 0 0 0h-192c-16.569 0-30 13.431-30 30 0 0.009 0 0.019 0 0.028v-0.001 144c0.004 9.239 4.183 17.501 10.753 23.002l0.047 0.038 96 80c5.164 4.318 11.876 6.941 19.2 6.941s14.036-2.622 19.247-6.979l-0.047 0.039 96-80c6.617-5.539 10.796-13.801 10.8-23.039v-0.001z" />
<glyph unicode="&#xe938;" glyph-name="icon13" d="M983.467 960h-398.933c-22.374-0.030-40.503-18.16-40.533-40.53v-240.003h97.147c32.586 44.187 84.441 72.533 142.917 72.533 97.791 0 177.067-79.275 177.067-177.067s-79.275-177.067-177.067-177.067c-58.476 0-110.332 28.346-142.576 72.048l-0.342 0.485h-97.147v-493.867c0.030-22.374 18.16-40.503 40.53-40.533h398.936c22.374 0.030 40.503 18.16 40.533 40.53v942.936c-0.030 22.374-18.16 40.503-40.53 40.533h-0.003zM816 152v-66.667c0-17.673-14.327-32-32-32s-32 14.327-32 32v0 66.667c-21.755 11.712-36.293 34.325-36.293 60.332 0 37.717 30.576 68.293 68.293 68.293s68.293-30.576 68.293-68.293c0-26.008-14.538-48.62-35.93-60.153l-0.363-0.179zM686.107 518.427c19.91-34.050 56.293-56.56 97.934-56.56 62.445 0 113.067 50.622 113.067 113.067s-50.622 113.067-113.067 113.067c-41.641 0-78.024-22.51-97.645-56.026l-0.289-0.534c-5.635-9.631-15.927-15.998-27.706-16h-472.8c-22.386 0-40.533-18.147-40.533-40.533s18.147-40.533 40.533-40.533v0h472.8c11.78-0.002 22.072-6.369 27.625-15.849l0.082-0.151zM272.347 80c0-26.51-21.49-48-48-48s-48 21.49-48 48c0 26.51 21.49 48 48 48v0c26.51 0 48-21.49 48-48v0zM326.16 149.813c-8.843 0-16.848 3.588-22.64 9.386v0c-20.267 20.262-48.263 32.795-79.187 32.795s-58.92-12.532-79.187-32.795v0c-5.801-5.801-13.815-9.389-22.667-9.389-17.704 0-32.056 14.352-32.056 32.056 0 8.852 3.588 16.866 9.389 22.667v0c31.869 31.798 75.858 51.461 124.44 51.461s92.571-19.663 124.443-51.464l-0.003 0.003c5.798-5.792 9.385-13.797 9.385-22.64 0-17.673-14.326-31.999-31.998-32v0zM416.667 240.32c-8.833 0.008-16.828 3.594-22.613 9.386v0c-43.468 43.363-103.463 70.176-169.72 70.176s-126.252-26.813-169.725-70.181l0.005 0.005c-5.801-5.801-13.815-9.389-22.667-9.389-17.704 0-32.056 14.352-32.056 32.056 0 8.852 3.588 16.866 9.389 22.667v0c55.044 54.934 131.028 88.904 214.947 88.904s159.902-33.97 214.952-88.909l-0.005 0.005c5.798-5.792 9.385-13.797 9.385-22.64 0-17.673-14.326-31.999-31.998-32v0z" />
<glyph unicode="&#xe939;" glyph-name="icon14" d="M32 687.011h31.953v-204.8h-31.953c-17.807 0.536-32.038 15.099-32.038 32.987 0 0.349 0.005 0.696 0.016 1.042l-0.001-0.051v136.611c-0.010 0.311-0.016 0.677-0.016 1.044 0 17.925 14.211 32.531 31.982 33.165l0.058 0.002zM992.047 687.011h-32.023v-204.8h32.023c17.774 0.561 31.969 15.104 31.969 32.962 0 0.357-0.006 0.713-0.017 1.068l0.001-0.052v136.611c0.011 0.325 0.018 0.707 0.018 1.091 0 17.892-14.178 32.472-31.913 33.118l-0.059 0.002zM896.023 755.2v-614.633c0.021-0.62 0.033-1.35 0.033-2.082 0-35.787-28.423-64.936-63.926-66.105l-0.107-0.003v-68.189c0.021-0.629 0.034-1.369 0.034-2.112 0-35.83-28.4-65.026-63.917-66.307l-0.117-0.003h-64c-35.634 1.284-64.034 30.48-64.034 66.31 0 0.743 0.012 1.482 0.036 2.219l-0.003-0.107v68.189h-256v-68.189c0.021-0.629 0.034-1.369 0.034-2.112 0-35.83-28.4-65.026-63.917-66.307l-0.117-0.003h-64.023c-35.644 1.272-64.057 30.473-64.057 66.311 0 0.742 0.012 1.482 0.036 2.218l-0.003-0.107v68.189c-35.616 1.274-64.005 30.454-64.005 66.264 0 0.677 0.010 1.351 0.030 2.023l-0.002-0.098v614.633c-0.063 1.87-0.099 4.069-0.099 6.276 0 107.396 85.232 194.885 191.743 198.515l0.332 0.009h384c106.866-3.692 192.096-91.211 192.096-198.638 0-2.167-0.035-4.326-0.104-6.476l0.008 0.314zM384.023 823.389h256v68.422h-256v-68.422zM320.023 208.989c-2.312 33.532-30.080 59.857-63.997 59.857-35.423 0-64.14-28.716-64.14-64.14s28.716-64.14 64.14-64.14c0.007 0 0.014 0 0.021 0h-0.001c35.606 1.193 64.016 30.343 64.016 66.129 0 0.806-0.014 1.609-0.043 2.408l0.003-0.116zM832.023 208.989c-2.312 33.532-30.080 59.857-63.997 59.857-35.423 0-64.14-28.716-64.14-64.14 0-35.422 28.714-64.138 64.136-64.14v0c35.614 1.167 64.040 30.318 64.040 66.108 0 0.814-0.015 1.624-0.044 2.431l0.003-0.117zM832.023 755.2h-640v-409.6h640v409.6z" />
<glyph unicode="&#xe93a;" glyph-name="icon15" d="M491.561 960c0.859 0.018 1.872 0.028 2.888 0.028 81.901 0 148.296-66.394 148.296-148.296s-66.394-148.296-148.296-148.296c-81.899 0-148.291 66.39-148.296 148.287v0.001c-0.005 0.44-0.007 0.96-0.007 1.481 0 80.589 64.938 146.010 145.341 146.794l0.074 0.001zM853.115 524.8l-107.254 27.443-135.619 103.834c-5.987 4.566-13.562 7.33-21.781 7.373h-190.904c-10.067-0.014-19.161-4.166-25.675-10.847l-0.007-0.008-218.030-222.413c-6.575-6.769-10.628-16.019-10.628-26.214s4.054-19.445 10.637-26.224l-0.009 0.009 23.982-24.576c6.507-6.682 15.591-10.828 25.643-10.828 8.669 0 16.619 3.083 22.811 8.213l-0.060-0.048 156.262 127.59v-148.275l-36.332-185.549-87.921-89.702c-6.586-6.754-10.648-15.995-10.648-26.185 0-7.629 2.277-14.727 6.189-20.65l-0.087 0.14 34.161-52.224c6.461-10.054 17.589-16.619 30.25-16.619 7.507 0 14.475 2.308 20.233 6.253l-0.122-0.079c0.958 0.638 1.795 1.312 2.566 2.054l-0.006-0.006 141.107 115.098c6.129 5.051 10.582 11.939 12.522 19.815l0.053 0.255 33.362 136.192 72.663-111.411 58.122-147.866c5.319-13.732 18.421-23.292 33.756-23.292 4.854 0 9.484 0.958 13.712 2.695l-0.24-0.087 2.765 1.229 79.38 40.55c12.044 6.358 20.112 18.799 20.112 33.125 0 5.271-1.093 10.288-3.063 14.835l0.093-0.242-95.642 227.533-72.663 111.206-5.816 111.206 78.479-37.069 112.64-28.877c2.606-0.67 5.597-1.054 8.678-1.054 16.155 0 29.842 10.568 34.525 25.169l0.071 0.257 13.292 40.755c1.178 3.475 1.858 7.477 1.858 11.639 0 16.2-10.306 29.992-24.72 35.179l-0.261 0.082z" />
<glyph unicode="&#xe93b;" glyph-name="icon16" d="M1016.78-1.060l-98 140c-7.327 10.371-19.267 17.060-32.768 17.060-0.004 0-0.008 0-0.012 0h-159.999v364c0 27.614 22.386 50 50 50s50-22.386 50-50v0-206c0-22.091 17.909-40 40-40s40 17.909 40 40v0 258h78c22.091 0 40 17.909 40 40v0 108c0 16.464-9.948 30.605-24.161 36.74l-0.259 0.1-473 200c-4.606 2.005-9.972 3.172-15.61 3.172s-11.004-1.167-15.869-3.271l0.259 0.1-471-200c-14.44-6.249-24.36-20.374-24.36-36.816 0-0.009 0-0.017 0-0.026v0.001-108c0-22.091 17.909-40 40-40v0h66v-432c-0.26-0.36-0.52-0.68-0.76-1.040l-98-140c-4.533-6.397-7.246-14.362-7.246-22.96 0-22.091 17.909-40 40-40 0.002 0 0.004 0 0.006 0h944c0.003 0 0.008 0 0.012 0 22.091 0 40 17.909 40 40 0 8.59-2.708 16.547-7.316 23.065l0.084-0.125zM546 156v364c0 27.614 22.386 50 50 50s50-22.386 50-50v0-364zM186 520c0 27.614 22.386 50 50 50s50-22.386 50-50v0-364h-100zM366 520c0 27.614 22.386 50 50 50s50-22.386 50-50v0-364h-100zM80 693.52l431.040 183.040 432.96-183.080v-41.48h-864zM116.82 16l42 60h706.36l42-60zM552 742c0-22.091-17.909-40-40-40s-40 17.909-40 40c0 22.091 17.909 40 40 40v0c22.091 0 40-17.909 40-40v0z" />
<glyph unicode="&#xe93c;" glyph-name="icon17" d="M552 400c0-22.091-17.909-40-40-40s-40 17.909-40 40c0 22.091 17.909 40 40 40v0c22.091 0 40-17.909 40-40v0zM672 440c-22.091 0-40-17.909-40-40s17.909-40 40-40c22.091 0 40 17.909 40 40v0c0 22.091-17.909 40-40 40v0zM352 360c22.091 0 40 17.909 40 40s-17.909 40-40 40c-22.091 0-40-17.909-40-40v0c0-22.091 17.909-40 40-40v0zM792 400c0-22.091 17.909-40 40-40s40 17.909 40 40c0 22.091-17.909 40-40 40v0c-22.091 0-40-17.909-40-40v0zM792 240c0-22.091 17.909-40 40-40s40 17.909 40 40c0 22.091-17.909 40-40 40v0c-22.091 0-40-17.909-40-40v0zM232 400c0 22.091-17.909 40-40 40s-40-17.909-40-40c0-22.091 17.909-40 40-40v0c22.091 0 40 17.909 40 40v0zM552 560c0 22.091-17.909 40-40 40s-40-17.909-40-40c0-22.091 17.909-40 40-40v0c22.091 0 40 17.909 40 40v0zM632 560c0-22.091 17.909-40 40-40s40 17.909 40 40c0 22.091-17.909 40-40 40v0c-22.091 0-40-17.909-40-40v0zM352 520c22.091 0 40 17.909 40 40s-17.909 40-40 40c-22.091 0-40-17.909-40-40v0c0-22.091 17.909-40 40-40v0zM832 520c22.091 0 40 17.909 40 40s-17.909 40-40 40c-22.091 0-40-17.909-40-40v0c0-22.091 17.909-40 40-40v0zM232 560c0 22.091-17.909 40-40 40s-40-17.909-40-40c0-22.091 17.909-40 40-40v0c22.091 0 40 17.909 40 40v0zM192 280c-22.091 0-40-17.909-40-40s17.909-40 40-40c22.091 0 40 17.909 40 40v0c0 22.091-17.909 40-40 40v0zM412 780h60v-60c0-22.091 17.909-40 40-40s40 17.909 40 40v0 60h60c22.091 0 40 17.909 40 40s-17.909 40-40 40v0h-60v60c0 22.091-17.909 40-40 40s-40-17.909-40-40v0-60h-60c-22.091 0-40-17.909-40-40s17.909-40 40-40v0zM864 860h-92c-22.091 0-40-17.909-40-40s17.909-40 40-40v0h92c44.16-0.057 79.943-35.84 80-79.995v-360.005c0-22.091 17.909-40 40-40s40 17.909 40 40v0 360c-0.102 88.324-71.676 159.898-159.99 160h-0.010zM1024 140v-164c0-22.091-17.909-40-40-40v0h-944c-22.091 0-40 17.909-40 40v0 724c0.102 88.324 71.676 159.898 159.99 160h92.010c22.091 0 40-17.909 40-40s-17.909-40-40-40v0h-92c-44.183 0-80-35.817-80-80v0-684h232v224c0 22.091 17.909 40 40 40v0h320c22.091 0 40-17.909 40-40v0-224h232v124c0 22.091 17.909 40 40 40s40-17.909 40-40v0zM392 16h80v76c0 22.091 17.909 40 40 40s40-17.909 40-40v0-76h80v184h-240z" />
<glyph unicode="&#xe93d;" glyph-name="icon18" horiz-adv-x="784" d="M784 328c0 22.091-17.909 40-40 40s-40-17.909-40-40v0c0-44.183-35.817-80-80-80v0h-464c-44.16 0.057-79.943 35.84-80 79.995v142.005h664.96c0.98 0 2 0 2.94 0.16s2 0.26 2.92 0.42l0.96 0.14c7.852 1.639 14.655 5.374 20.009 10.589l-0.009-0.009 0.42 0.38c0.56 0.56 1.080 1.18 1.62 1.78s0.68 0.72 1 1.1 0.6 0.8 0.9 1.22 0.96 1.24 1.4 2c0.14 0.18 0.22 0.38 0.34 0.56 2.049 3.092 3.715 6.668 4.813 10.486l0.067 0.274c0.28 0.96 0.54 1.9 0.74 2.88v0c0.246 1.092 0.465 2.456 0.607 3.842l0.013 0.158c0.12 1.3 0.2 2.64 0.2 4v0c0 0.36 0 0.7 0 1.040 0 0.96 0 1.9-0.14 2.86s-0.26 2-0.44 3.060c0 0.28 0 0.54-0.12 0.82v0.42l-68 343.38c-10.571 56.361-59.395 98.44-118.047 98.44-0.033 0-0.065 0-0.098 0h-408.415c-0.017 0-0.037 0-0.056 0-58.452 0-107.143-41.792-117.822-97.126l-0.121-0.754-69.84-344.12c-0.509-2.374-0.8-5.101-0.8-7.896 0-0.037 0-0.073 0-0.11v0.006-182c0.102-88.324 71.676-159.898 159.99-160h15.63l-123.84-168.28c-4.862-6.546-7.784-14.787-7.784-23.71 0-22.093 17.91-40.004 40.004-40.004 13.17 0 24.854 6.365 32.144 16.186l0.076 0.107 45.42 61.7h316.36c22.091 0 40 17.909 40 40s-17.909 40-40 40v0h-257.5l51.72 70.3c0.781 1.053 1.575 2.261 2.3 3.513l0.1 0.187h240.74c0.786-1.362 1.539-2.504 2.352-3.601l-0.072 0.101 154-212c7.344-10.197 19.183-16.759 32.555-16.759 22.091 0 40 17.909 40 40 0 8.953-2.941 17.219-7.911 23.884l0.075-0.106-122.36 168.48h10c88.324 0.102 159.898 71.676 160 159.99v0.010zM149.14 846.5c0 0.26 0.12 0.5 0.16 0.74 3.545 18.761 19.808 32.76 39.339 32.76 0 0 0 0 0.001 0h408.42c0.002 0 0.005 0 0.008 0 19.596 0 35.901-14.091 39.334-32.694l0.038-0.246c0-0.24 0-0.48 0.14-0.7l58.72-296.36h-261.3v170h104c22.091 0 40 17.909 40 40s-17.909 40-40 40v0h-290c-22.091 0-40-17.909-40-40s17.909-40 40-40v0h106v-170h-265.060zM218 398c22.091 0 40-17.909 40-40s-17.909-40-40-40v0h-40c-22.091 0-40 17.909-40 40s17.909 40 40 40v0zM602 398c22.091 0 40-17.909 40-40s-17.909-40-40-40v0h-40c-22.091 0-40 17.909-40 40s17.909 40 40 40v0z" />
<glyph unicode="&#xe93e;" glyph-name="icon19" d="M647.34 481l58.16-58c29.459-29.649 70.257-48 115.342-48 0.126 0 0.252 0 0.378 0h162.78c22.091 0 40 17.909 40 40v0 12.14c0 0.058 0 0.127 0 0.196 0 39.861-7.959 77.863-22.376 112.504l0.715-1.939-94.88 233.32c-24.244 58.996-81.261 99.78-147.804 99.78-0.139 0-0.279 0-0.418-0.001h-599.239c-88.366 0-160-71.634-160-160v0-446.2c0.071-87.24 69.881-158.151 156.688-159.997l0.172-0.003c16.977-46.996 61.202-79.98 113.13-79.98s96.153 32.984 112.866 79.145l0.264 0.835h247.76c16.985-46.981 61.202-79.952 113.12-79.952s96.135 32.971 112.856 79.116l0.264 0.835h6.88c77.101 0.165 141.421 54.689 156.676 127.275l0.184 1.045c0.5 2.372 0.786 5.098 0.786 7.89 0 22.095-17.911 40.006-40.006 40.006-19.302 0-35.412-13.67-39.175-31.857l-0.045-0.259c-7.722-36.799-39.881-64.043-78.414-64.1h-6.886c-16.985 46.981-61.202 79.952-113.12 79.952s-96.135-32.971-112.856-79.116l-0.264-0.835h-247.76c-16.993 46.966-61.203 79.923-113.11 79.923s-96.117-32.957-112.845-79.088l-0.265-0.835c-42.829 1.713-76.9 36.847-76.9 79.94 0 0.021 0 0.042 0 0.063v-0.003 216zM624 561h-122v230h122zM422 561h-130v230h130zM833.36 741l94.88-233.34c6.438-15.305 11.343-33.099 13.876-51.648l0.124-1.112h-121.040c-0.051 0-0.111 0-0.171 0-23.079 0-43.962 9.406-59.023 24.594l-0.006 0.006-58 58.18v253.32h55.36c0.012 0 0.026 0 0.041 0 33.317 0 61.859-20.443 73.767-49.469l0.193-0.531zM80 711c0 44.183 35.817 80 80 80v0h52v-230.12h-132zM744 184.8c22.091 0 40-17.909 40-40s-17.909-40-40-40c-22.091 0-40 17.909-40 40v0c0 22.091 17.909 40 40 40v0zM270 184.8c22.091 0 40-17.909 40-40s-17.909-40-40-40c-22.091 0-40 17.909-40 40v0c0 22.091 17.909 40 40 40v0z" />
<glyph unicode="&#xe93f;" glyph-name="icon20" d="M471.040 119.64v22c-54 1.88-95.86 44.12-95.86 97.72-0.045 0.707-0.070 1.533-0.070 2.365 0 22.091 17.909 40 40 40s40-17.909 40-40c0-0.832-0.025-1.658-0.075-2.478l0.005 0.112c0-11.78 10-18 19.74-18h59.44c18.64 0 32.68 13.1 32.68 30.44v9.8c0 17.74-14.36 31.62-32.68 31.62h-36.58c-62 0-112.28 51.040-112.28 113.78v14.56c-0.001 0.171-0.002 0.374-0.002 0.576 0 30.816 12.686 58.669 33.12 78.623l0.022 0.021c14.111 13.823 31.908 23.935 51.779 28.725l0.761 0.155v27.12c-0.051 0.756-0.080 1.639-0.080 2.529 0 22.091 17.909 40 40 40s40-17.909 40-40c0-0.89-0.029-1.772-0.086-2.648l0.006 0.119v-25.66c46.56-8.56 81.88-48.48 81.88-96.32 0.051-0.756 0.080-1.639 0.080-2.529 0-22.091-17.909-40-40-40s-40 17.909-40 40c0 0.89 0.029 1.772 0.086 2.648l-0.006-0.119c0 11.38-10.52 18.2-20.68 18.2h-34.6c-18.5 0-32.44-13.48-32.44-31.36v-14.56c0-18.4 14.86-34 32.44-34h36.58c0.164 0.001 0.358 0.001 0.552 0.001 30.647 0 58.432-12.25 78.727-32.121l-0.020 0.019c20.529-20.034 33.261-47.978 33.261-78.895 0-0.164 0-0.327-0.001-0.49v0.025-9.8c0-56.28-40.94-101.44-95.86-109.12v-23.12c-1.369-20.976-18.718-37.471-39.92-37.471s-38.551 16.495-39.914 37.352l-0.006 0.119zM1024 289.32c0.051-0.756 0.080-1.639 0.080-2.529 0-22.091-17.909-40-40-40s-40 17.909-40 40c0 0.89 0.029 1.772 0.086 2.648l-0.006-0.119c0 127.6-81.52 226.96-167.58 296.32 55.58-84.74 83.74-171.52 83.74-258.4-1.369-20.976-18.718-37.471-39.92-37.471s-38.551 16.495-39.914 37.352l-0.006 0.119c0 123.62-71.68 248.68-213.060 371.66l-1.84 1.6h-128.48c-68.544-30.235-127.616-65.702-181.568-107.465l1.968 1.465c-117.88-91.84-177.66-194.5-177.66-305.18 0-164.7 95.14-269.32 248.3-273.32l359.080-0.12c90 2 164 37.86 208.44 100.9 7.184 11.377 19.69 18.824 33.935 18.824 22.091 0 40-17.909 40-40 0-9.416-3.253-18.072-8.697-24.905l0.062 0.081c-59.42-84.44-156.18-132.32-272.46-134.8l-361.82 0.1c-95.5 2.34-176.84 36-235.22 97.42-59.84 62.94-91.46 151.4-91.46 255.82 0 76.12 22.62 149.64 67.24 218.5 34.76 53.62 82.76 104.38 142.86 150.9 49.326 38.15 105.077 72.681 164.279 101.181l5.621 2.439-54 139.36c-1.671 4.225-2.64 9.119-2.64 14.239 0 0.021 0 0.043 0 0.064v-0.003 4c0.074 22.035 17.954 39.87 40 39.87 5.029 0 9.841-0.928 14.275-2.622l-0.274 0.092c89.86-34 177.24-34 267.16 0 4.159 1.602 8.971 2.53 14 2.53 22.046 0 39.926-17.835 40-39.863v-4.007c0.001-0.090 0.001-0.196 0.001-0.302 0-5.027-0.925-9.839-2.613-14.273l0.092 0.275-53.86-139.3c65.134-30.939 121.144-65.476 172.908-105.265l-2.228 1.645c60.36-46.5 108.68-97.26 143.58-150.88 44.86-68.88 67.6-142.44 67.6-218.58zM427.64 860.32l30.9-80h104.94l30.9 80c-25.065-5.123-53.875-8.055-83.37-8.055s-58.304 2.932-86.153 8.521l2.783-0.466z" />
<glyph unicode="&#xe940;" glyph-name="icon21" d="M1001.18 937.060c-10.62 10.62-29.721 23.24-60.661 22.94-88.222-0.84-219.904-108.322-269.285-154.003h-517.23c-85.017-0.091-153.912-68.986-154.003-153.994v-0.009c0-0.003 0-0.007 0-0.010 0-17.063 10.684-31.631 25.726-37.379l0.274-0.092 334.267-124.622-156.783-158.003-120.962-14c-28.816-3.408-53.946-17.012-72.115-37.044l-0.086-0.096c-6.416-7.068-10.343-16.496-10.343-26.842 0-15.386 8.687-28.743 21.424-35.435l0.219-0.105 129.403-66.781-39.301-39.321c-7.534-7.284-12.212-17.482-12.212-28.772 0-22.092 17.909-40.001 40.001-40.001 11.29 0 21.488 4.678 28.761 12.201l40.932 40.932 80.002-140.443c7.019-12.148 19.946-20.192 34.752-20.192 11.752 0 22.321 5.068 29.64 13.139l0.030 0.034 2.9 3.2c15.537 17.067 26.018 38.987 28.927 63.235l0.053 0.546 14.56 123.482 151.343 151.863 122.882-329.506c5.84-15.317 20.408-26.001 37.471-26.001 0.004 0 0.007 0 0.011 0h-0.001c85.017 0.091 153.912 68.986 154.003 153.994v0.009c0 22.092-17.909 40.001-40.001 40.001s-40.001-17.909-40.001-40.001v0c-0.037-31.517-19.739-58.422-47.494-69.11l-0.507-0.172-124.202 333.147 65.701 66.001c7.502 7.279 12.158 17.456 12.158 28.72 0 22.092-17.909 40.001-40.001 40.001-11.314 0-21.531-4.697-28.807-12.248l-0.012-0.012-288.926-290.006c-6.141-6.14-10.286-14.275-11.382-23.35l-0.019-0.19-10-85.282-59.461 104.342c-3.89 6.73-9.474 12.096-16.181 15.615l-0.22 0.105-91.202 47.161 81.382 9.28c9.384 1.108 17.623 5.317 23.818 11.558l0.002 0.002 293.986 296.186c7.176 7.228 11.612 17.186 11.612 28.181 0 22.093-17.91 40.002-40.002 40.002-11.098 0-21.141-4.52-28.388-11.819l-65.484-66.004-337.427 125.902c10.868 28.255 37.768 47.951 69.275 48.001h533.276c11.045 0.002 21.043 4.481 28.28 11.72v0c22.84 22.84 66.561 59.661 112.742 90.442 71.721 47.841 104.602 51.841 112.962 51.841 0.4 0.023 0.869 0.036 1.34 0.036s0.94-0.013 1.405-0.039l-0.065 0.003c0-0.5 0-1.080 0-1.76 0.74-48.161-84.862-169.163-142.943-227.224l-0.14-0.16-3.26-3.28c-7.347-7.255-11.898-17.326-11.9-28.46v0-329.126c0-22.092 17.909-40.001 40.001-40.001s40.001 17.909 40.001 40.001v0 312.706c32.984 35.297 63.649 73.787 91.148 114.586l2.094 3.296c43.721 65.701 65.601 119.122 65.001 158.783-0.46 29.261-12.68 47.541-22.84 57.701z" />
<glyph unicode="&#xe941;" glyph-name="icon22" d="M984 252h-118v332c0 22.091-17.909 40-40 40s-40-17.909-40-40v0-138.667c-34.133 5.573-76 20.587-76 60.64 0 28.4 15.227 121.707 40 209.2 34 119.493 64.773 157.867 75.893 164.267 3.92-2.507 16.133-12.373 33.253-46.267 14.853-29.333 30.027-70.16 43.84-117.973 25.413-87.84 41.013-181.040 41.013-209.2 0-22.091 17.909-40 40-40s40 17.909 40 40v0c0 41.12-19.28 149.12-48 244.373-43.067 142.96-90.667 209.627-150 209.627s-106.667-66.667-149.067-209.813q-3.787-12.827-7.36-25.92-3.627 13.173-7.547 26.107c-43.093 142.96-90.773 209.627-150.027 209.627s-106.933-66.667-150.027-209.627q-3.867-12.933-7.547-26.107-3.547 13.093-7.36 25.92c-42.373 143.147-89.733 209.813-149.067 209.813s-106.933-66.667-150-209.627c-28.72-95.253-48-203.253-48-244.373 0-46.533 23.253-86.32 65.52-112 25.28-15.36 56.8-25.387 92.48-29.627v-112.373h-118c-22.091 0-40-17.909-40-40s17.909-40 40-40v0h944c22.091 0 40 17.909 40 40s-17.909 40-40 40v0zM786 364.427v-112.427h-234v112.4c35.68 4.24 67.2 14.267 92.48 29.627 9.508 5.786 17.755 12.065 25.29 19.096l-0.090-0.083c7.267-6.892 15.304-13.114 23.925-18.485l0.635-0.368c24.96-15.44 56.213-25.493 91.76-29.76zM435.013 715.2c13.84 47.813 28.987 88.613 43.84 117.973 16.96 33.493 29.093 43.6 33.147 46.187 4.053-2.667 16.187-12.587 33.147-46.187 14.853-29.333 30.027-70.16 43.84-117.973 25.413-87.84 41.013-181.040 41.013-209.2 0-35.787-36.587-54.053-78-60.773v138.773c0 22.091-17.909 40-40 40s-40-17.909-40-40v0-138.667c-41.413 6.72-78 24.987-78 60.773 0 28.16 15.6 121.36 41.013 209.2zM80 506c0 28.16 15.6 121.36 41.013 209.2 13.84 47.813 28.987 88.613 43.84 117.973 17.12 33.893 29.333 43.76 33.253 46.267 11.12-6.4 41.893-44.773 75.813-164.24 24.827-87.493 40-180.8 40-209.2 0-40-41.867-55.067-76-60.64v138.64c0 22.091-17.909 40-40 40s-40-17.909-40-40v0-138.667c-41.333 6.613-77.92 24.88-77.92 60.667zM238 364.427c35.547 4.267 66.667 14.32 91.76 29.76 9.256 5.739 17.293 11.961 24.627 18.916l-0.067-0.063c7.445-6.949 15.692-13.227 24.53-18.633l0.67-0.381c25.28-15.36 56.8-25.387 92.48-29.627v-112.4h-234zM1024 16v-80c-40.933 0-80.907 23.013-118.827 68.4-2.4 2.23-5.627 3.598-9.173 3.598s-6.773-1.368-9.182-3.606l0.008 0.008c-37.92-45.387-77.893-68.4-118.827-68.4s-80.907 23.013-118.827 68.4c-2.4 2.23-5.627 3.598-9.173 3.598s-6.773-1.368-9.182-3.606l0.008 0.008c-37.92-45.387-77.893-68.4-118.827-68.4s-80.907 23.013-118.827 68.4c-2.4 2.23-5.627 3.598-9.173 3.598s-6.773-1.368-9.182-3.606l0.008 0.008c-37.92-45.387-77.893-68.4-118.827-68.4s-80.907 23.013-118.827 68.4c-2.16 2.232-5.184 3.617-8.53 3.617-0.226 0-0.451-0.006-0.674-0.019l0.031 0.001c-0.192 0.011-0.417 0.017-0.643 0.017-3.347 0-6.37-1.385-8.527-3.614l-0.003-0.003c-37.92-45.387-77.893-68.4-118.827-68.4v80c15.413 0 36.347 14.48 57.413 39.707 16.869 19.813 41.833 32.298 69.714 32.298 0.307 0 0.613-0.002 0.92-0.005h-0.047c0.259 0.003 0.565 0.004 0.871 0.004 27.873 0 52.829-12.485 69.582-32.168l0.107-0.129c21.093-25.227 42.027-39.707 57.44-39.707s36.347 14.48 57.413 39.707c17.209 19.806 42.437 32.255 70.573 32.255s53.364-12.45 70.476-32.141l0.097-0.114c21.093-25.227 42.027-39.707 57.44-39.707s36.347 14.48 57.413 39.707c17.209 19.806 42.437 32.255 70.573 32.255s53.364-12.45 70.476-32.141l0.097-0.114c21.093-25.227 42.027-39.707 57.44-39.707s36.347 14.48 57.44 39.707c17.209 19.796 42.431 32.24 70.56 32.24s53.351-12.444 70.463-32.126l0.097-0.114c21.093-25.227 42.027-39.707 57.44-39.707z" />
<glyph unicode="&#xe942;" glyph-name="icon23" d="M13.107 960h998.118v-825.088h-384c0 14.848 0 29.696 0 44.544 12.8 0.512 25.856 0 38.784 0.256 0 55.808 0 111.36 0 167.168 9.114 0 18.227 0.256 27.341 0 0-55.808 0-111.36 0-167.168h274.176c0 118.272 0.282 236.544-0.205 354.816-19.379-0.256-38.733-0.256-58.086-0.256 0 9.216 0 18.688 0 27.904 19.328 0 38.682 0.256 58.035 0 0.614 117.504 0 235.264 0.256 353.024-110.464-0.256-220.928 0-331.366-0.256q0-176.256 0-352.768h167.066c0.154-9.216 0.154-18.688 0-27.904-36.608 0.256-73.19 0-109.747 0-0.461-25.6 0-51.2-0.23-76.8h-27.341c0 25.6 0 50.944 0 76.544-64.947 0.512-129.894 0.256-194.842 0.256-0.256-25.6 0-51.2-0.358-77.056-9.062 0.256-18.125 0-27.187 0.256q0 38.4 0 76.8h-56.653c0 9.472 0 18.688 0 27.904h221.542q0.179 176.64 0 353.024-275.994-0.384-551.962 0c0.154-117.76-0.256-235.52 0.205-353.024 74.803 0.256 149.581 0 224.384 0 0-9.216 0-18.688 0-27.904h-224.41q-0.41-276.48 0-553.216c93.056 0 186.086-0.256 279.040 0q0 99.072 0 198.656c35.84 0 71.936-0.256 107.878 0 0 55.808 0.154 111.36 0 167.168 9.114 0.256 18.202 0 27.341 0.256 0-55.808 0.384-111.616 0-167.424h40.96c0.717-14.848 0.154-29.696 0.333-44.8h-132.736c0-66.304 0-132.352 0-198.656-122.163-0.256-244.378-0.512-366.541 0q0 385.536 0 771.328c0.307 84.224-0.358 168.448 0.256 252.416v0z" />
<glyph unicode="&#xe943;" glyph-name="icon24" d="M512 960c-186.877-1.161-337.922-152.922-337.922-339.962 0-0.42 0.001-0.839 0.002-1.259v0.065-341.688c0-186.628 151.292-337.92 337.92-337.92s337.92 151.292 337.92 337.92v0 341.709c0.001 0.348 0.002 0.761 0.002 1.174 0 187.040-151.045 338.801-337.812 339.961l-0.11 0.001zM812.442 277.156c0.013-1.043 0.020-2.275 0.020-3.508 0-165.941-134.521-300.462-300.462-300.462s-300.462 134.521-300.462 300.462c0 1.233 0.007 2.465 0.022 3.695l-0.002-0.187v341.709c-0.013 1.043-0.020 2.275-0.020 3.508 0 165.941 134.521 300.462 300.462 300.462s300.462-134.521 300.462-300.462c0-1.233-0.007-2.465-0.022-3.695l0.002 0.187v-341.688zM812.442 277.156l-300.442 569.078c-10.409-0.012-18.842-8.452-18.842-18.862 0-0.036 0-0.072 0-0.108v0.006-171.745c0-10.406 8.436-18.842 18.842-18.842s18.842 8.436 18.842 18.842v0 171.766c-0.023 10.422-8.43 18.872-18.833 18.964h-0.009z" />
<glyph unicode="&#xe944;" glyph-name="icon25" d="M970.439-53.046c-0.001 0-0.002 0-0.003 0-9.307 0-16.852 7.545-16.852 16.852 0 4.655 1.887 8.868 4.938 11.918l7.463 7.464h-769.636l7.462-7.457c3.050-3.050 4.937-7.263 4.937-11.917 0-9.307-7.545-16.851-16.851-16.851-4.653 0-8.865 1.885-11.914 4.934l-35.806 35.823c-3.049 3.043-4.936 7.249-4.936 11.897 0 0.082 0.001 0.164 0.002 0.246v-0.012 0.209c0 0.004 0 0.008 0 0.013 0 5.769 2.901 10.86 7.323 13.895l0.057 0.037 34.202 34.205c3.059 3.106 7.309 5.030 12.010 5.030 9.307 0 16.852-7.545 16.852-16.852 0-4.702-1.926-8.955-5.032-12.012l-7.463-7.466h769.641l-7.461 7.464c-3.108 3.059-5.034 7.312-5.034 12.014 0 9.307 7.545 16.852 16.852 16.852 4.7 0 8.951-1.924 12.008-5.028l35.809-35.827c3.049-3.039 4.936-7.243 4.936-11.887 0-0.086-0.001-0.171-0.002-0.256v0.013-0.209c0-0.003 0-0.008 0-0.012 0-5.769-2.901-10.861-7.325-13.896l-0.057-0.037-34.209-34.212c-3.038-3.048-7.24-4.934-11.882-4.934-0.010 0-0.019 0-0.029 0h0.002zM53.054 64.105c-0.002 0-0.005 0-0.008 0-5.771 0-10.863 2.905-13.894 7.333l-0.037 0.058-34.202 34.217c-2.994 3.040-4.843 7.215-4.843 11.823 0 9.307 7.545 16.852 16.852 16.852 4.605 0 8.779-1.847 11.821-4.841l7.46-7.462v769.897l-7.462-7.464c-3.035-2.967-7.192-4.797-11.776-4.797-9.307 0-16.852 7.545-16.852 16.852 0 4.586 1.832 8.744 4.803 11.782l35.81 35.822c2.997 3.050 7.165 4.94 11.775 4.94 0.121 0 0.242-0.001 0.362-0.004h-0.018c0.003 0 0.006 0 0.009 0 5.834 0 10.992-2.899 14.11-7.336l0.037-0.055 34.202-34.212c2.994-3.040 4.843-7.215 4.843-11.823 0-9.307-7.545-16.852-16.852-16.852-4.605 0-8.779 1.847-11.821 4.841l-7.46 7.462v-769.897l7.462 7.466c3.040 2.992 7.213 4.839 11.818 4.839 9.307 0 16.852-7.545 16.852-16.852 0-4.607-1.849-8.783-4.845-11.825l-35.805-35.823c-3.026-3.053-7.221-4.943-11.857-4.943-0.095 0-0.189 0.001-0.283 0.002h-0.202zM1007.094 111.792h-814.359c0 0-0.001 0-0.002 0-9.306 0-16.851 7.544-16.851 16.851 0 0.002 0 0.004 0 0.005v0 803.602c0 0.001 0 0.003 0 0.005 0 9.307 7.545 16.852 16.852 16.852h486.636c9.306-0.002 16.849-7.546 16.849-16.852 0-0.002 0-0.004 0-0.005v0-327.181h310.868c9.307 0 16.852-7.545 16.852-16.852 0-0.002 0-0.004 0-0.005v0-459.545c0-0.004 0-0.010 0-0.015 0-9.302-7.538-16.843-16.839-16.847v0zM695.5 145.517h294.743v425.837h-294.743v-425.83zM372.676 145.517h289.129v225.804h-289.129v-225.804zM209.585 145.517h129.38v225.804h-129.38v-225.804zM355.823 405.030h305.979v183.181c0.001 1.751 0.264 3.44 0.753 5.031l-0.032-0.121v176.021h-452.938v-364.106h146.238zM452.546 802.863h209.987v112.531h-209.987v-112.531zM209.585 802.863h209.251v112.531h-209.251v-112.531z" />
<glyph unicode="&#xe945;" glyph-name="icon26" d="M191.414-64h-97.618c-0.001 0-0.003 0-0.005 0-7.906 0-14.314 6.409-14.314 14.314 0 0.001 0 0.001 0 0.002v0 995.37c0 7.906 6.409 14.314 14.314 14.314 0.002 0 0.004 0 0.005 0h836.407c0.001 0 0.002 0 0.003 0 7.906 0 14.315-6.409 14.316-14.314v0-995.365c0-0.001 0-0.003 0-0.005 0-7.906-6.409-14.316-14.316-14.316-0.001 0-0.002 0-0.004 0h-97.643c-0.001 0-0.002 0-0.003 0-7.906 0-14.314 6.409-14.314 14.314 0 0.001 0 0.001 0 0.002v0 883.438h-332.703l271.695-26.517c7.284-0.733 12.924-6.83 12.927-14.245v0-774.92c0-0.001 0-0.003 0-0.004 0-7.304-5.473-13.33-12.542-14.201l-0.069-0.007-564.192-67.726c-0.361-0.052-0.728-0.087-1.094-0.109-0.286-0.012-0.567-0.023-0.85-0.023zM846.876-35.365h69.008v966.735h-807.77v-966.735h69.003v883.25q-0.008 0.422 0.017 0.837c0.292 6.181 4.464 11.313 10.122 13.035l0.101 0.027c1.246 0.374 2.677 0.589 4.159 0.589 0.028 0 0.056 0 0.084 0h640.961c0.001 0 0.002 0 0.003 0 7.906 0 14.314-6.409 14.314-14.314v-883.423zM205.752 832.286v-865.824l535.773 64.31v749.232zM667.352 361.447c-24.342 0-44.146 23.975-44.146 53.442s19.804 53.44 44.146 53.44 44.146-23.975 44.146-53.44-19.806-53.435-44.146-53.435zM667.352 439.704c-7.337 0-15.509-10.191-15.509-24.81s8.172-24.81 15.509-24.81 15.509 10.191 15.509 24.81-8.172 24.817-15.509 24.817z" />
<glyph unicode="&#xe946;" glyph-name="icon27" d="M622.947-64h-219.65c-0.385 0-0.756 0.013-1.128 0.038h-351.27c-0.002 0-0.005 0-0.008 0-8.699 0-15.751 7.051-15.753 15.75v0 919.786c0.002 8.699 7.054 15.75 15.753 15.75 0.003 0 0.006 0 0.009 0h20.133v56.926c0.002 8.699 7.054 15.75 15.753 15.75 0.002 0 0.005 0 0.007 0h850.413c0.002 0 0.004 0 0.007 0 8.699 0 15.751-7.051 15.753-15.75v0-56.926h20.135c0.002 0 0.005 0 0.008 0 8.699 0 15.751-7.051 15.753-15.75v0-919.786c-0.001-8.699-7.053-15.75-15.752-15.75-0.003 0-0.006 0-0.009 0h-349.030c-0.37-0.038-0.748-0.038-1.126-0.038zM638.707-32.463h318.641v888.288h-890.689v-888.288h320.878v290.759c0.002 8.699 7.054 15.75 15.753 15.75 0.002 0 0.005 0 0.007 0h219.649c0.002 0 0.004 0 0.007 0 8.699 0 15.751-7.051 15.753-15.75v0-290.759zM419.057-32.463h188.13v275.009h-188.13v-275.009zM102.552 887.324h818.894v41.176h-818.894v-41.176zM910.876 68.26h-219.651c-0.002 0-0.005 0-0.008 0-8.699 0-15.751 7.051-15.752 15.75v0 175.017c0.002 8.698 7.053 15.748 15.752 15.748 0.003 0 0.006 0 0.009 0h219.656c0.002 0 0.005 0 0.008 0 8.698 0 15.75-7.050 15.752-15.748v0-175.017c-0.001-8.699-7.053-15.75-15.752-15.75-0.003 0-0.006 0-0.009 0v0zM706.98 99.76h188.142v80.481h-188.137v-80.481zM706.98 211.739h188.142v31.538h-188.137v-31.533zM335.019 68.26h-219.656c-0.002 0-0.004 0-0.007 0-8.699 0-15.751 7.051-15.753 15.75v0 175.017c0.002 8.698 7.053 15.748 15.752 15.748 0.003 0 0.006 0 0.009 0h219.656c0.002 0 0.005 0 0.008 0 8.698 0 15.75-7.050 15.752-15.748v0-175.017c-0.004-8.699-7.057-15.75-15.757-15.75-0.001 0-0.002 0-0.004 0v0zM131.122 99.76h188.137v80.481h-188.137v-80.481zM131.122 211.739h188.137v31.538h-188.137v-31.533zM910.881 342.643h-219.656c-0.002 0-0.004 0-0.007 0-8.699 0-15.751 7.051-15.753 15.75v0 175.017c0.001 8.699 7.053 15.75 15.752 15.75 0.003 0 0.006 0 0.009 0h219.656c0.002 0 0.005 0 0.008 0 8.699 0 15.751-7.051 15.752-15.75v0-175.017c-0.004-8.699-7.057-15.75-15.757-15.75-0.001 0-0.002 0-0.004 0v0zM706.985 374.143h188.137v81.962h-188.137v-81.962zM706.985 487.61h188.137v30.057h-188.137v-30.057zM622.947 342.643h-219.65c-0.002 0-0.004 0-0.007 0-8.699 0-15.751 7.051-15.753 15.75v0 175.017c0.001 8.699 7.053 15.75 15.752 15.75 0.003 0 0.006 0 0.009 0h219.649c0.002 0 0.005 0 0.008 0 8.699 0 15.751-7.051 15.752-15.75v0-175.017c-0.004-8.699-7.057-15.75-15.757-15.75-0.001 0-0.002 0-0.004 0v0zM419.057 374.143h188.13v81.962h-188.13v-81.962zM419.057 487.61h188.13v30.057h-188.13v-30.057zM335.019 342.643h-219.656c-0.002 0-0.004 0-0.007 0-8.699 0-15.751 7.051-15.753 15.75v0 175.017c0.002 8.699 7.054 15.75 15.753 15.75 0.002 0 0.005 0 0.007 0h219.656c0.002 0 0.005 0 0.008 0 8.699 0 15.751-7.051 15.752-15.75v0-175.017c-0.007-8.699-7.060-15.749-15.76-15.75v0zM131.122 374.143h188.137v81.962h-188.137v-81.962zM131.122 487.61h188.137v30.057h-188.137v-30.057zM910.881 617.035h-219.656c-0.002 0-0.005 0-0.008 0-8.699 0-15.751 7.051-15.752 15.75v0 175.010c0.002 8.699 7.054 15.75 15.753 15.75 0.002 0 0.005 0 0.007 0h219.656c0.002 0 0.004 0 0.007 0 8.699 0 15.751-7.051 15.753-15.75v0-175.017c-0.005-8.696-7.055-15.743-15.752-15.743-0.003 0-0.006 0-0.009 0v0zM706.985 648.535h188.137v82.705h-188.137v-82.705zM706.985 762.738h188.137v29.308h-188.137v-29.316zM622.947 617.035h-219.65c-0.002 0-0.005 0-0.008 0-8.699 0-15.751 7.051-15.752 15.75v0 175.010c0.002 8.699 7.054 15.75 15.753 15.75 0.002 0 0.005 0 0.007 0h219.649c0.002 0 0.004 0 0.007 0 8.699 0 15.751-7.051 15.753-15.75v0-175.017c-0.005-8.696-7.055-15.743-15.752-15.743-0.003 0-0.006 0-0.009 0v0zM419.057 648.535h188.13v82.705h-188.13v-82.705zM419.057 762.738h188.13v29.308h-188.13v-29.316zM335.019 617.035h-219.656c-0.002 0-0.004 0-0.007 0-8.699 0-15.751 7.051-15.753 15.75v0 175.010c0.002 8.699 7.054 15.75 15.753 15.75 0.002 0 0.005 0 0.007 0h219.656c0.002 0 0.004 0 0.007 0 8.699 0 15.751-7.051 15.753-15.75v0-175.017c-0.008-8.696-7.059-15.743-15.757-15.743-0.001 0-0.002 0-0.004 0v0zM131.122 648.535h188.137v82.705h-188.137v-82.705zM131.122 762.738h188.137v29.308h-188.137v-29.316z" />
<glyph unicode="&#xe947;" glyph-name="icon28" d="M918.337 20.497h-812.668c-7.67 0-13.888 6.218-13.888 13.888v282.314c-53.71 17.763-91.779 67.514-91.779 126.156 0 73.23 59.365 132.595 132.595 132.595 0.065 0 0.13 0 0.194 0h-0.010q1.026 0 2.051-0.017v51.406c0 137.116 111.658 248.665 248.902 248.665h256.534c137.244 0 248.904-111.549 248.904-248.665v-51.406q1.024 0.015 2.050 0.017c0.053 0 0.117 0 0.18 0 73.231 0 132.596-59.365 132.596-132.596 0-58.639-38.065-108.388-90.833-125.885l-0.937-0.269v-282.323c-0.005-7.666-6.221-13.879-13.888-13.879-0.002 0-0.004 0-0.005 0v0zM786.238 48.255h118.205v278.986c0.003 6.55 4.54 12.039 10.642 13.5l0.095 0.019c46.663 11.288 80.782 52.69 80.782 102.062 0 57.915-46.949 104.865-104.865 104.865s-104.865-46.949-104.865-104.865c0-0.012 0-0.023 0-0.035v0.002-394.541zM265.557 48.255h492.89v184.782h-492.895v-184.782zM119.567 48.255h118.195v394.541c0 0.056 0 0.123 0 0.189 0 57.985-47.006 104.992-104.992 104.992s-104.992-47.006-104.992-104.992c0-49.492 34.244-90.985 80.33-102.079l0.716-0.146c6.197-1.48 10.734-6.97 10.737-13.519v0-278.986zM265.557 260.795h492.89v59.812c-0.061 36.792-29.888 66.598-66.683 66.624h-70.396c-0.228 0-0.438 0-0.644 0h-288.487c-36.798-0.025-66.626-29.831-66.685-66.618v-59.818zM640.136 414.996h51.632c0.022 0 0.047 0 0.073 0 26.014 0 49.565-10.545 66.612-27.593v0 55.383c0.1 62.688 43.582 115.191 102.025 129.1l0.904 0.181v54.764c0 121.809-99.194 220.908-221.117 220.908h-256.529c-121.923 0-221.117-99.102-221.117-220.908v-54.764c59.348-14.087 102.833-66.59 102.934-129.267v-55.394c17.050 17.048 40.604 27.593 66.62 27.593 0.023 0 0.046 0 0.069 0h47.683l-79.644 246.491c-0.425 1.273-0.67 2.739-0.67 4.262 0 7.67 6.218 13.888 13.888 13.888 6.147 0 11.362-3.994 13.19-9.529l0.028-0.098 82.405-255.020h87.007v317.437c0 7.673 6.22 13.893 13.893 13.893s13.893-6.22 13.893-13.893v0-317.435h87.015l82.405 255.020c1.856 5.633 7.071 9.627 13.218 9.627 7.67 0 13.888-6.218 13.888-13.888 0-1.523-0.245-2.988-0.698-4.359l0.028 0.098z" />
<glyph unicode="&#xe948;" glyph-name="icon29" d="M1024 380c0 35.346-28.654 64-64 64v0h-812v416c0.030 33.125 26.875 59.97 59.997 60h16.003c27.086-0.034 49.97-17.988 57.436-42.641l0.111-0.425c-35.746-10.208-61.485-42.556-61.547-80.926v-24.007c0-11.046 8.954-20 20-20v0h128c11.046 0 20 8.954 20 20v0 24c-0.065 39.86-27.839 73.215-65.086 81.836l-0.567 0.111c-8.839 46.945-49.491 81.994-98.34 82.053h-16.006c-55.204-0.061-99.939-44.796-100-99.994v-416.006h-44c-35.318-0.037-63.935-28.677-63.935-64 0-28.171 18.201-52.090 43.484-60.641l0.451-0.132v-67.227c0-0.051 0-0.111 0-0.171 0-70.614 28.683-134.529 75.033-180.729l0.007-0.007c-5.23-4.122-11.411-7.312-18.138-9.192l-0.368-0.088c-27.526-7.564-47.414-32.366-47.414-61.813 0-35.346 28.654-64 64-64 0 0 0 0 0 0v0c5.893 0.011 11.596 0.808 17.014 2.293l-0.454-0.106c40.499 11.017 74.376 34.733 97.978 66.531l0.342 0.482c20.403-5.841 43.838-9.2 68.056-9.2 0.018 0 0.036 0 0.053 0h423.997c24.165 0.012 47.542 3.37 69.697 9.636l-1.804-0.436c23.933-32.258 57.777-55.967 96.98-66.719l1.26-0.295c4.967-1.384 10.671-2.18 16.56-2.18 29.483 0 54.31 19.936 61.735 47.064l0.105 0.449c1.38 4.96 2.173 10.655 2.173 16.535 0 29.481-19.933 54.306-47.057 61.733l-0.449 0.105c-7.096 1.968-13.277 5.158-18.619 9.365l0.112-0.085c46.437 46.207 75.181 110.158 75.2 180.823v67.23c25.762 8.662 43.99 32.587 44 60.772v0.001zM348 796v-4h-88v4c0 24.301 19.699 44 44 44s44-19.699 44-44v0zM123.333-23.173c-1.864-0.519-4.004-0.818-6.213-0.818-13.257 0-24.005 10.747-24.005 24.005 0 11.048 7.463 20.352 17.623 23.147l0.169 0.040c15.186 4.171 28.287 11.641 39.017 21.625l-0.057-0.052c12.275-9.011 26.2-17.347 40.887-24.342l1.566-0.672c-17.861-20.365-41.338-35.399-68.009-42.705l-0.977-0.228zM927.68 12c2.020-3.441 3.212-7.579 3.212-11.995 0-13.255-10.745-24-24-24-2.214 0-4.359 0.3-6.394 0.861l0.169-0.040c-27.649 7.534-51.126 22.569-68.85 42.775l-0.136 0.158c16.25 7.66 30.175 16.006 43.172 25.543l-0.719-0.503c10.667-9.949 23.77-17.43 38.311-21.447l0.649-0.153c6.271-1.717 11.401-5.744 14.525-11.086l0.061-0.114zM960 356h-357.76c-11.046 0-20-8.954-20-20s8.954-20 20-20v0h337.76v-64c-0.152-119.232-96.768-215.848-215.985-216h-424.015c-119.232 0.152-215.848 96.768-216 215.985v64.015h338.24c11.046 0 20 8.954 20 20s-8.954 20-20 20v0h-358.24c-13.255 0-24 10.745-24 24s10.745 24 24 24v0h896c13.255 0 24-10.745 24-24s-10.745-24-24-24v0zM512 356c-0.009 0-0.019 0-0.029 0-11.060 0-20.027-8.966-20.027-20.027s8.966-20.027 20.027-20.027c11.060 0 20.027 8.966 20.027 20.027 0 5.53-2.241 10.536-5.865 14.16v0c-3.621 3.613-8.614 5.852-14.131 5.867h-0.003zM814 786c11.046 0 20 8.954 20 20v0 26c0 11.046-8.954 20-20 20s-20-8.954-20-20v0-26c0-11.046 8.954-20 20-20v0zM814 648c11.046 0 20 8.954 20 20v0 25.333c0 11.046-8.954 20-20 20s-20-8.954-20-20v0-25.28c0-11.046 8.954-20 20-20v0zM870 730h26c11.046 0 20 8.954 20 20s-8.954 20-20 20v0h-26c-11.046 0-20-8.954-20-20s8.954-20 20-20v0zM732 730h26c11.046 0 20 8.954 20 20s-8.954 20-20 20v0h-26c-11.046 0-20-8.954-20-20s8.954-20 20-20v0zM512.24 662c11.046 0 20 8.954 20 20v0 26c0 11.046-8.954 20-20 20s-20-8.954-20-20v0-26c0-11.046 8.954-20 20-20v0zM512.24 524c0.008 0 0.017 0 0.027 0 11.031 0 19.973 8.942 19.973 19.973 0 0.009 0 0.019 0 0.028v-0.001 25.28c0 11.046-8.954 20-20 20s-20-8.954-20-20v0-25.28c0-11.046 8.954-20 20-20v0zM568.24 606h26c11.046 0 20 8.954 20 20s-8.954 20-20 20v0h-26c-11.046 0-20-8.954-20-20s8.954-20 20-20v0zM430.24 606h26c11.046 0 20 8.954 20 20s-8.954 20-20 20v0h-26c-11.046 0-20-8.954-20-20s8.954-20 20-20v0z" />
<glyph unicode="&#xe949;" glyph-name="icon30" d="M999.571 540.774h-84.303v396.47c0 12.566-10.186 22.754-22.752 22.756h-761.030c-12.568 0-22.756-10.188-22.756-22.756v-396.47h-84.303c-12.568 0-22.756-10.188-22.756-22.756v0-472.402c0-12.568 10.188-22.756 22.756-22.756v0h84.303v-64.105c0-12.568 10.188-22.756 22.756-22.756s22.756 10.188 22.756 22.756v64.105h715.517v-64.105c-0.003-0.13-0.004-0.283-0.004-0.436 0-12.568 10.188-22.756 22.756-22.756s22.756 10.188 22.756 22.756c0 0.153-0.002 0.306-0.005 0.459v-0.023 64.105h84.309c12.568 0 22.756 10.188 22.756 22.756v0 472.402c0 0.003 0 0.008 0 0.012 0 12.561-10.183 22.744-22.744 22.744-0.004 0-0.008 0-0.012 0h0.001zM154.239 914.489h715.522v-373.715h-84.303c-12.568 0-22.756-10.188-22.756-22.756v0-232.988h-501.412v232.988c0 12.568-10.188 22.756-22.756 22.756v0h-84.296v373.715zM976.816 68.372h-929.631v426.891h168.604v-232.988c0-12.568 10.188-22.756 22.756-22.756h546.915c12.568 0 22.756 10.188 22.756 22.756v0 232.988h168.602v-426.891z" />
<glyph unicode="&#xe94a;" glyph-name="icon31" d="M865.688 960h-707.382c-0.003 0-0.008 0-0.012 0-12.57 0-22.76-10.187-22.766-22.755v-895.342c0.006-12.569 10.196-22.756 22.766-22.756 0.004 0 0.007 0 0.011 0h60.096v-60.393c0-12.579 10.197-22.776 22.776-22.776s22.776 10.197 22.776 22.776v0 60.393h496.091v-60.393c0.111-12.495 10.266-22.582 22.776-22.582s22.666 10.087 22.776 22.572v60.403h60.093c0.003 0 0.008 0 0.012 0 12.57 0 22.761 10.187 22.767 22.755v895.342c-0.010 12.57-10.201 22.756-22.772 22.756-0.004 0-0.007 0-0.011 0h0.001zM181.084 914.489h308.137v-849.83h-308.137v849.83zM842.913 64.659h-308.139v849.83h308.139v-849.83zM400.23 474.949c14.869-0.019 26.915-12.077 26.915-26.949 0-14.883-12.065-26.949-26.949-26.949s-26.949 12.065-26.949 26.949v0c0.008 14.885 12.076 26.949 26.962 26.949 0.007 0 0.014 0 0.021 0h-0.001zM623.78 474.949c14.869-0.019 26.915-12.077 26.915-26.949 0-14.883-12.065-26.949-26.949-26.949s-26.949 12.065-26.949 26.949v0c0.008 14.885 12.076 26.949 26.962 26.949 0.004 0 0.007 0 0.011 0h-0.001z" />
<glyph unicode="&#xe94b;" glyph-name="icon32" d="M927.946 487.822l-200.267 434.579c-9.88 21.432-35.025 37.599-58.492 37.599h-314.897c-23.47 0-48.615-16.166-58.495-37.599l-200.264-434.579c-6.276-13.615-5.754-27.859 1.422-39.081 7.145-11.174 19.759-17.577 34.604-17.577h357.44v-270.607c-110.487-9.753-201.716-89.898-221.258-197.746-0.232-1.219-0.364-2.622-0.364-4.056 0-12.563 10.18-22.748 22.741-22.756h443.246c12.562 0.007 22.743 10.193 22.743 22.756 0 1.435-0.133 2.84-0.387 4.202l0.022-0.141c-19.545 107.845-110.766 187.989-221.258 197.746v270.607h151.539v-90.57c-26.369-9.619-44.856-34.479-44.856-63.657 0-37.333 30.264-67.597 67.597-67.597s67.597 30.264 67.597 67.597c0 29.178-18.487 54.039-44.387 63.507l-0.47 0.15v90.57h160.422c14.843 0 27.459 6.407 34.604 17.577 7.176 11.222 7.695 25.466 1.419 39.076zM704.089-18.489h-384.701c26.681 79.385 103.531 134.547 192.348 134.547s165.67-55.165 192.353-134.547zM708.76 253.99c-0.136-0.003-0.296-0.005-0.457-0.005-12.468 0-22.575 10.107-22.575 22.575s10.107 22.575 22.575 22.575c12.467 0 22.573-10.105 22.575-22.572v0c0.001-0.061 0.001-0.132 0.001-0.204 0-12.267-9.872-22.229-22.105-22.372h-0.014zM140.479 476.677l196.623 426.667c2.45 5.316 11.445 11.15 17.192 11.15h314.893c5.747 0 14.743-5.834 17.192-11.15l196.623-426.667h-742.524z" />
<glyph unicode="&#xe94c;" glyph-name="icon33" d="M883.333 541.708c13.194 32.539 20.86 70.281 20.883 109.811v0.009c0 168.608-136.684 305.292-305.292 305.292s-305.292-136.684-305.292-305.292v0c0.023-39.539 7.689-77.281 21.6-111.838l-0.717 2.017c-27.17-24.68-50.866-52.426-70.766-82.877l-0.999-1.63-153.324 122.244c-2.87 2.302-6.556 3.694-10.567 3.694-4.693 0-8.941-1.906-12.012-4.987v0l-61.906-62.034c-3.049-3.066-4.934-7.292-4.934-11.959 0-4.17 1.505-7.988 4.001-10.941l-0.021 0.025 174.907-207.938c-2.512-17.343-3.96-37.387-3.986-57.765v-271.4c0-9.367 7.594-16.961 16.961-16.961v0h814.112c9.367 0 16.961 7.594 16.961 16.961v0 271.371c0 0.043 0 0.093 0 0.143 0 124.435-53.726 236.323-139.246 313.731l-0.361 0.322zM327.553 651.528c0 149.874 121.497 271.371 271.371 271.371s271.371-121.497 271.371-271.371v0c-0.003-31.126-5.313-61.011-15.076-88.8l0.574 1.877q-14.162 10.812-29.194 20.353c6.202 20.185 9.774 43.387 9.774 67.424 0 131.14-106.31 237.449-237.449 237.449s-237.449-106.31-237.449-237.449c0-24.036 3.571-47.239 10.213-69.105l-0.439 1.682q-15.074-9.752-29.194-20.353c-9.188 25.912-14.499 55.797-14.501 86.922v0.001zM401.501 602.596c-3.879 14.854-6.106 31.906-6.106 49.479 0 112.405 91.123 203.528 203.528 203.528s203.528-91.123 203.528-203.528c0-17.572-2.227-34.625-6.414-50.89l0.308 1.411c-57.21 30.818-125.201 48.927-197.422 48.927s-140.212-18.109-199.681-50.035l2.258 1.108zM598.923 617.607c215.337-0.233 389.841-174.758 390.095-390.095v-186.567h-780.19v186.567c0.233 215.337 174.758 389.862 390.095 390.095zM40.006 503.122l40.282 40.282 145.098-115.693c-15.711-28.599-28.795-61.732-37.543-96.586l-0.618-2.909zM989.019-26.899h-780.19v33.921h780.19z" />
<glyph unicode="&#xe94d;" glyph-name="icon34" d="M1006.688-49.856h-991.954c-0.008 0-0.018 0-0.028 0-8.137 0-14.734 6.597-14.734 14.734 0 4.718 2.218 8.919 5.668 11.615l0.032 0.024 991.954 770.505c2.472 1.943 5.63 3.116 9.061 3.116 8.137 0 14.734-6.597 14.734-14.734 0-0.008 0-0.015 0-0.023v0.001-770.505c0-8.137-6.597-14.734-14.734-14.734v0zM958.582-20.388h33.372v725.64l-934.197-725.64h147.338v23.574c0 8.137 6.597 14.734 14.734 14.734s14.734-6.597 14.734-14.734v0-23.574h151.685v23.574c0 8.137 6.597 14.734 14.734 14.734s14.734-6.597 14.734-14.734v0-23.574h151.537v23.574c0 8.137 6.597 14.734 14.734 14.734s14.734-6.597 14.734-14.734v0-23.574h151.537v23.574c0 8.137 6.597 14.734 14.734 14.734s14.734-6.597 14.734-14.734v0-23.574h151.464v23.574c0 8.137 6.597 14.734 14.734 14.734s14.734-6.597 14.734-14.734v0zM867.232 79.802h-467.062c-8.101 0.048-14.649 6.626-14.649 14.734 0 4.635 2.14 8.77 5.486 11.471l0.028 0.022 467.062 370.924c2.498 2.014 5.711 3.232 9.209 3.232 8.137 0 14.734-6.597 14.734-14.734 0-0.023 0-0.045 0-0.068v0.003-370.85c0-8.137-6.597-14.734-14.734-14.734v0zM442.383 109.27h410.116v325.544zM173.638 165.921c-0.003 0-0.008 0-0.012 0-7.93 0-14.397 6.265-14.721 14.115l-0.001 0.029-4.199 103.873c-0.312 1.105-0.491 2.373-0.491 3.683s0.179 2.579 0.514 3.782l-0.024-0.099 157.431 642.763c1.653 6.464 7.425 11.167 14.296 11.167 1.227 0 2.42-0.15 3.56-0.433l-0.101 0.021 58.125-14.292c6.508-1.621 11.254-7.415 11.254-14.317 0-1.246-0.155-2.457-0.446-3.613l0.022 0.102-5.157-20.922 24.384-5.967c6.473-1.647 11.184-7.423 11.184-14.3 0-1.253-0.156-2.469-0.45-3.63l0.022 0.102-54.957-224.764c-1.696-6.439-7.467-11.111-14.329-11.111-8.171 0-14.795 6.624-14.795 14.795 0 1.309 0.17 2.578 0.489 3.787l-0.023-0.103 51.568 210.325-10.019 2.431-145.349-593.404c-0.634-2.62-1.895-4.885-3.617-6.711l0.007 0.007-51.568-89.876c-2.592-4.431-7.326-7.361-12.744-7.367h-0.001zM184.173 287.696l2.136-55.104 27.331 47.885 147.338 600.55c-0.071 0.542-0.111 1.169-0.111 1.805s0.040 1.263 0.119 1.878l-0.008-0.073c0.301 1.282 0.758 2.413 1.358 3.449l-0.032-0.060 4.273 17.46-29.468 7.367z" />
<glyph unicode="&#xe94e;" glyph-name="icon35" d="M825.29-66.677h-697.391c-7.376 0.022-13.347 6.006-13.347 13.386 0 1.287 0.182 2.531 0.52 3.709l-0.023-0.094 53.542 193.489c-46.493 55.947-75.363 127.996-77.294 206.727l-0.008 0.416h-24.362c-7.393 0-13.386 5.993-13.386 13.386v0 9.37c0.038 31.773 25.785 57.52 57.555 57.558h463.882c28.74-0.034 52.555-21.078 56.913-48.597l0.043-0.327c7.361 3.848 13.291 9.563 17.293 16.527l0.109 0.205c3.416 6.062 5.428 13.309 5.428 21.026 0 0.279-0.003 0.556-0.008 0.834l0.001-0.042v387.848h-10.508c-7.393 0-13.386 5.993-13.386 13.386v0 38.818c0.038 22.902 18.593 41.457 41.492 41.495h87.68c-1.821 4.539-2.878 9.801-2.878 15.31 0 23.287 18.878 42.165 42.165 42.165 23.258 0 42.117-18.83 42.165-42.077v-0.004c-0.019-5.54-1.073-10.828-2.98-15.688l0.102 0.295h87.676c22.902-0.038 41.457-18.593 41.495-41.492v-38.822c0-7.393-5.993-13.386-13.386-13.386v0h-10.708v-350.703c0-0.029 0-0.064 0-0.098 0-41.624-14.948-79.757-39.769-109.323l0.214 0.262c-4.15-5.354-9.035-11.378-13.854-17.334l-11.244-14.055c-3.547-4.484-7.295-9.035-11.11-13.386-26.771-32.393-56.822-69.070-64.117-140.549-6.090-59.633 32.929-208.28 33.464-209.753l1.004-3.213c0.365-1.162 0.575-2.497 0.575-3.882 0-7.393-5.993-13.386-13.386-13.386-0.014 0-0.028 0-0.042 0h0.002zM145.569-39.906h662.588c-9.772 39.287-36.275 152.195-30.72 206.205 8.165 79.176 42.499 120.939 70.074 154.47 3.681 4.551 7.362 8.968 10.775 13.386s7.63 9.504 11.645 14.523l13.386 17c20.82 24.834 33.499 57.107 33.598 92.339v350.724h-235.386v-388.183c0.002-0.2 0.003-0.435 0.003-0.672 0-12.711-3.352-24.639-9.221-34.948l0.183 0.349c-10.299-17.428-27.549-29.818-47.837-33.403l-0.418-0.061c-1.505-0.613-3.25-0.98-5.077-1.004h-501.101c2.187-74.902 30.607-142.77 76.342-195.125l-0.312 0.365s0 0 0 0c0.937-1.138 65.723-75.227 189.607-75.227 7.393 0 13.386-5.993 13.386-13.386s-5.993-13.386-13.386-13.386v0c-100.392 0-164.375 43.236-193.021 67.999zM104.408 377.725h501.091c-2.055 15.186-14.934 26.769-30.519 26.771h-463.879c-0.061 0-0.132 0.001-0.204 0.001-15.601 0-28.497-11.579-30.565-26.611l-0.018-0.161zM930.301 835.514h10.508v25.433c-0.038 8.14-6.646 14.724-14.791 14.724 0 0 0 0 0 0h-253.658c-8.117-0.038-14.686-6.608-14.724-14.721v-25.437zM799.322 933.229c-8.502 0-15.393-6.892-15.393-15.393s6.892-15.393 15.393-15.393c8.502 0 15.393 6.892 15.393 15.393v0c0 8.502-6.892 15.393-15.393 15.393v0z" />
<glyph unicode="&#xe94f;" glyph-name="icon36" horiz-adv-x="1020" d="M906.211-64h-792.3c-8.24 0-14.92 6.68-14.92 14.92v0 504.428h-84.071c-8.214 0.034-14.86 6.7-14.86 14.919 0 4.217 1.749 8.024 4.561 10.738l495.183 474.817c2.676 2.572 6.319 4.156 10.332 4.156s7.655-1.584 10.337-4.161l-0.005 0.005 495.104-474.813c2.817-2.718 4.566-6.526 4.566-10.742 0-8.219-6.646-14.886-14.857-14.919h-84.149v-504.428c0-8.24-6.68-14.92-14.92-14.92v0zM688.386-34.161h202.905v223.793h-202.905zM304.955-34.161h353.592v223.793h-353.592zM221.405-34.161h53.71v16.934h-53.71zM128.83-34.161h62.737v223.793h-62.737zM221.405 12.612h53.71v24.99h-53.71zM221.405 67.441h53.71v24.99h-53.71zM221.405 122.27h53.71v24.99h-53.71zM221.405 177.099h53.71v12.607h-53.71zM673.466 219.545h217.825v235.803h-263.553v-235.579zM544.114 219.545h53.785v17.903h-53.785zM395.964 219.545h118.312v235.803h-118.312zM290.035 219.545h76.089v235.803h-237.295v-235.579zM544.114 267.288h53.785v28.049h-53.785zM544.114 324.951h53.785v28.049h-53.785zM544.114 382.615h53.785v28.123h-53.785zM544.114 440.354h53.785v14.92h-53.785zM906.211 485.112h61.841l-160.31 154.118v-154.044zM612.819 485.112h165.084v182.466l-144.794 138.826h-246.172l-152.104-145.913v-175.304zM113.91 485.112h91.084v146.659l-152.776-146.584zM418.119 836.243h183.808l-91.904 88.174z" />
</font>
</defs>
</svg>
